Помилование (2023) WEBRip [H.264/720p]

Ответить на тему
 
Автор Сообщение

admin ®

Пол: Не указан

Стаж: 5 месяца

Сообщений: 10110

Создавать темы 30-Янв-2024 16:01

[Цитировать]

Помилование (2023) WEBRip - Производство: Россия / Мотор Фильм Студия
Жанр: драма, военный
Режиссер: Айнур Аскаров
Продюсер: Тимербулат Каримов, Михаил Курбатов, Дмитрий Фикс,
Актеры: Александр Новиков, Николай Галлямов, Евгений Михеев, Джамиля Мударисова, Гела Месхи, Александр Бухаров, Любовь Зайцева, Юрий Лопарев, Михаил Хмуров, Гузель Хасанова
Описание:
Лето 1942 года. Под Сталинградом начинается жесточайшее сражение, исход которого решит судьбу всего мира… Ещё не нюхавший пороха двадцатилетний сержант Любомир Зух отлучился из своей части в прифронтовой зоне, чтобы проститься с любимой девушкой.​ Всего три часа его не было в части!​ Но по законам военного времени он дезертир. И наказание за это одно — расстрел.​ ​Приговор слишком суров, и это понимают все. Остановится ли маховик военной машины, будет ли приказ о помиловании?
Возраст: 12+ (зрителям, достигшим 12 лет)
Продолжительность: 01:40:31
Качество видео: WEBRip
Субтитры: Отсутствуют
Видео: AVC/H.264, 1280x532, ~3000 Kbps
Аудио: AC3, 2 ch, 384 kbps

MediaInfo:

Общее
Уникальный идентификатор : 291175592366191602435406414034957883148 (0xDB0E6115F4C50F02DBA86B151B91D70C)
Полное имя : C:\Users\Виктор\Videos\Помилование (2023).mkv
Формат : Matroska
Версия формата : Version 4
Размер файла : 2,38 Гбайт
Продолжительность : 1 ч. 40 м.
Общий поток : 3 388 Кбит/сек
Дата кодирования : UTC 2023-06-22 20:44:05
Программа кодирования : HandBrake 1.6.1 2023012300
Библиотека кодирования : Lavf59.27.100
ErrorDetectionType : Per level 1
Видео
Идентификатор : 1
Формат : AVC
Формат/Информация : Advanced Video Codec
Профиль формата : Main@L3.1
Настройки формата : CABAC / 4 Ref Frames
Параметр CABAC формата : Да
Параметр RefFrames формата : 4 кадра
Идентификатор кодека : V_MPEG4/ISO/AVC
Продолжительность : 1 ч. 40 м.
Битрейт : 3 000 Кбит/сек
Ширина : 1 280 пикселей
Высота : 532 пикселя
Соотношение сторон : 2,40:1
Режим частоты кадров : Постоянный
Частота кадров : 24,000 кадра/сек
Цветовое пространство : YUV
Субдискретизация насыщенности : 4:2:0
Битовая глубина : 8 бит
Тип развёртки : Прогрессивная
Бит/(Пиксели*Кадры) : 0.184
Размер потока : 2,06 Гбайт (87%)
Библиотека кодирования : x264 core 164 r3100 ed0f7a6
Настройки программы : cabac=1 / ref=3 / deblock=1:0:0 / analyse=0x1:0x111 / me=hex / subme=7 / psy=1 / psy_rd=1.00:0.00 / mixed_ref=1 / me_range=16 / chroma_me=1 / trellis=1 / 8x8dct=0 / cqm=0 / deadzone=21,11 / fast_pskip=1 / chroma_qp_offset=-2 / threads=9 / lookahead_threads=1 / sliced_threads=0 / nr=0 / decimate=1 / interlaced=0 / bluray_compat=0 / constrained_intra=0 / bframes=3 / b_pyramid=2 / b_adapt=1 / b_bias=0 / direct=1 / weightb=1 / open_gop=0 / weightp=2 / keyint=240 / keyint_min=24 / scenecut=40 / intra_refresh=0 / rc_lookahead=40 / rc=2pass / mbtree=1 / bitrate=3000 / ratetol=1.0 / qcomp=0.60 / qpmin=0 / qpmax=69 / qpstep=4 / cplxblur=20.0 / qblur=0.5 / vbv_maxrate=14000 / vbv_bufsize=14000 / nal_hrd=none / filler=0 / ip_ratio=1.40 / aq=1:1.00
Default : Да
Forced : Нет
Цветовой диапазон : Limited
Основные цвета : BT.709
Характеристики трансфера : BT.709
Коэффициенты матрицы : BT.709
Аудио
Идентификатор : 2
Формат : AC-3
Формат/Информация : Audio Coding 3
Коммерческое название : Dolby Digital
Идентификатор кодека : A_AC3
Продолжительность : 1 ч. 40 м.
Вид битрейта : Постоянный
Битрейт : 384 Кбит/сек
Каналы : 2 канала
Channel layout : L R
Частота : 48,0 КГц
Частота кадров : 31,250 кадров/сек (1536 SPF)
Метод сжатия : С потерями
Задержка видео : -5 мс.
Размер потока : 276 Мбайт (11%)
Заголовок : Stereo
Service kind : Complete Main
Default : Да
Forced : Нет
Скриншоты:
Все одноименные релизы в КлубеВремя раздачи: 10:00 до 22:00 (минимум до появления первых 3-5 скачавших)
[Профиль] [ЛС]
Показать сообщения:    
Ответить на тему

Текущее время: 28-Фев 21:28

Часовой пояс: UTC ± 0



Вы не можете начинать темы
Вы не можете отвечать на сообщения
Вы не можете редактировать свои сообщения
Вы не можете удалять свои сообщения
Вы не можете голосовать в опросах
Вы не можете прикреплять файлы к сообщениям
Вы не можете скачивать файлы

[  Время выполнения: 0,035 сек  |  MySQL: 0,003 сек (8%) · 3 запр.  |  GZIP выкл  |  Память: 422,29 KB / 1,74 MB / 1,34 MB  |  Лимит: 14 15 14  ]