Солнце на вкус (2022) WEBRip

Ответить на тему
 
Автор Сообщение

admin ®

Пол: Не указан

Стаж: 5 месяца

Сообщений: 10110

Создавать темы 30-Янв-2024 16:01

[Цитировать]

Солнце на вкус (2022) WEBRip - Производство: Россия, Узбекистан / Агентство кинематографии Узбекистана, Спутник Восток Продакшн
Жанр: комедия, фэнтези
Режиссер: Эльдар Салаватов
Продюсер: Александр Кессель, Фирдавс Абдухаликов, Эдуард Горбенко,
Актеры: Леонид Басов, Александр Ильин, Камила Якубова, Андрей Мерзликин, Елена Полякова, Мухаммадисо Абдулхаиров, Аброр Бакиров, Роналдо Ласпинас
Описание:
12-летний Тимур отправляется на каникулы в далекий Узбекистан навестить дедушку. В первый же вечер среди старого хлама в дедушкином сарае ему попадается загадочный медальон с непонятными знаками. Случайная находка оказывается ключом к древним сокровищам Бухарского эмира. Тимуру предстоит найти дорогу к таинственным Часам Мудрецов, попасть в лабиринт времени, а главное — спасти семью.
Возраст: 6+ (зрителям, достигшим 6 лет)
Релиз от: JNS82
Продолжительность: 01:32:30
Качество видео: WEBRip
Субтитры: отсутствуют
Видео: Xvid, 720x304, ~2058 Kbps
Аудио: AC3, 2 ch, 192 Kbps

MediaInfo:

Общее
Полное имя : H:\НОВИНКИ ФИЛЬМЫ 2023\Солнце.на.вкус.2022.WEB-DLRip_от New-Team_by_JNS82.avi
Формат : AVI
Формат/Информация : Audio Video Interleave
Размер файла : 1,46 Гбайт
Продолжительность : 1 ч. 32 м.
Общий поток : 2 259 Кбит/сек
Программа кодирования : VirtualDubModRus 1.5.10.2 (build 2542/release)
Библиотека кодирования : VirtualDubMod build 2542/release
Видео
Идентификатор : 0
Формат : MPEG-4 Visual
Профиль формата : Advanced Simple@L5
Настройки формата : BVOP1 / Custom Matrix
Параметр BVOP формата : 1
Параметр QPel формата : Нет
Параметр GMC формата : Без точки перехода
Параметр матрицы формата : Выборочная
Идентификатор кодека : XVID
Идентификатор кодека/Подсказка : XviD
Продолжительность : 1 ч. 32 м.
Битрейт : 2 058 Кбит/сек
Ширина : 720 пикселей
Высота : 304 пикселя
Соотношение сторон : 2,35:1
Частота кадров : 24,000 кадра/сек
Цветовое пространство : YUV
Субдискретизация насыщенности : 4:2:0
Битовая глубина : 8 бит
Тип развёртки : Прогрессивная
Метод сжатия : С потерями
Бит/(Пиксели*Кадры) : 0.392
Размер потока : 1,33 Гбайт (91%)
Библиотека кодирования : XviD 74
Аудио
Идентификатор : 1
Формат : AC-3
Формат/Информация : Audio Coding 3
Коммерческое название : Dolby Digital
Идентификатор кодека : 2000
Продолжительность : 1 ч. 32 м.
Вид битрейта : Постоянный
Битрейт : 192 Кбит/сек
Каналы : 2 канала
Channel layout : L R
Частота : 48,0 КГц
Частота кадров : 31,250 кадров/сек (1536 SPF)
Метод сжатия : С потерями
Размер потока : 127 Мбайт (8%)
Выравнивание : Разделение по промежуткам
Продолжительность промежутка : 42 мс. (1,00 видеокадр)
Время предзагрузки промежутка : 500 мс.
Service kind : Complete Main
Скриншоты:
Все одноименные релизы в КлубеВремя раздачи: с 11:00 до 23:00 (минимум до появления первых 3-5 скачавших)
[Профиль] [ЛС]
Показать сообщения:    
Ответить на тему

Текущее время: 28-Фев 22:10

Часовой пояс: UTC ± 0



Вы не можете начинать темы
Вы не можете отвечать на сообщения
Вы не можете редактировать свои сообщения
Вы не можете удалять свои сообщения
Вы не можете голосовать в опросах
Вы не можете прикреплять файлы к сообщениям
Вы не можете скачивать файлы

[  Время выполнения: 0,037 сек  |  MySQL: 0,003 сек (8%) · 3 запр.  |  GZIP выкл  |  Память: 422,29 KB / 1,74 MB / 1,34 MB  |  Лимит: 16 16 17  ]