14+ Продолжение (2023) WEBRip [H.264/720p]

Ответить на тему
 
Автор Сообщение

admin ®

Пол: Не указан

Стаж: 5 месяца

Сообщений: 10110

Создавать темы 30-Янв-2024 16:01

[Цитировать]

14+ Продолжение (2023) WEBRip - Производство: Россия / All Media Company, Сентябрь, START
Жанр: мелодрама
Режиссер: Андрей Зайцев
Продюсер: Андрей Зайцев, Георгий Шабанов, Арпине Хачян
Актеры: Глеб Калюжный, Ульяна Васькович, Ольга Озоллапиня, Полина Гухман, Даниил Пикула, Дмитрий Блохин, Анна Рудь, Алексей Филимонов, Сергей Габриэлян, Александр Кононец
Описание:
История взросления Леши, которому исполнилось 18 лет. Он встречает яркую и открытую Настю, которая переворачивает его привычный мир, но все еще вспоминает свою первую любовь Вику. Он становится взрослее, а проблемы — серьезнее. Но, как и раньше, справиться с жизненными сложностями и ответить на все вопросы о любви, семье и долге Леша должен самостоятельно.
Возраст: 12+ (зрителям, достигшим 12 лет)
Продолжительность: 02:07:55
Качество видео: WEBRip
Перевод: Не требуется (Русский)
Субтитры: отсутствуют
Видео: AVC/H.264, 1280x720, ~3000 Kbps
Аудио: AC3, 2 ch, 384 Kbps

MediaInfo:

Общее
Уникальный идентификатор : 257074157934420008566551595523977123234 (0xC166AE8EFE435287B34A0547C27215A2)
Полное имя : H:\НОВИНКИ ФИЛЬМЫ 2023\14+ Продолжение.mkv
Формат : Matroska
Версия формата : Version 4
Размер файла : 2,96 Гбайт
Продолжительность : 2 ч. 7 м.
Общий поток : 3 316 Кбит/сек
Дата кодирования : UTC 2023-07-07 16:03:30
Программа кодирования : HandBrake 1.6.1 2023012300
Библиотека кодирования : Lavf59.27.100
ErrorDetectionType : Per level 1
Видео
Идентификатор : 1
Формат : AVC
Формат/Информация : Advanced Video Codec
Профиль формата : Main@L3.1
Настройки формата : CABAC / 4 Ref Frames
Параметр CABAC формата : Да
Параметр RefFrames формата : 4 кадра
Идентификатор кодека : V_MPEG4/ISO/AVC
Продолжительность : 2 ч. 7 м.
Битрейт : 3 000 Кбит/сек
Ширина : 1 280 пикселей
Высота : 720 пикселей
Соотношение сторон : 16:9
Режим частоты кадров : Постоянный
Частота кадров : 25,000 кадров/сек
Цветовое пространство : YUV
Субдискретизация насыщенности : 4:2:0
Битовая глубина : 8 бит
Тип развёртки : Прогрессивная
Бит/(Пиксели*Кадры) : 0.130
Размер потока : 2,56 Гбайт (86%)
Библиотека кодирования : x264 core 164 r3100 ed0f7a6
Настройки программы : cabac=1 / ref=3 / deblock=1:0:0 / analyse=0x1:0x111 / me=hex / subme=7 / psy=1 / psy_rd=1.00:0.00 / mixed_ref=1 / me_range=16 / chroma_me=1 / trellis=1 / 8x8dct=0 / cqm=0 / deadzone=21,11 / fast_pskip=1 / chroma_qp_offset=-2 / threads=9 / lookahead_threads=1 / sliced_threads=0 / nr=0 / decimate=1 / interlaced=0 / bluray_compat=0 / constrained_intra=0 / bframes=3 / b_pyramid=2 / b_adapt=1 / b_bias=0 / direct=1 / weightb=1 / open_gop=0 / weightp=2 / keyint=250 / keyint_min=25 / scenecut=40 / intra_refresh=0 / rc_lookahead=40 / rc=abr / mbtree=1 / bitrate=3000 / ratetol=1.0 / qcomp=0.60 / qpmin=0 / qpmax=69 / qpstep=4 / vbv_maxrate=14000 / vbv_bufsize=14000 / nal_hrd=none / filler=0 / ip_ratio=1.40 / aq=1:1.00
Default : Да
Forced : Нет
Цветовой диапазон : Limited
Основные цвета : BT.709
Характеристики трансфера : BT.709
Коэффициенты матрицы : BT.709
Аудио
Идентификатор : 2
Формат : AC-3
Формат/Информация : Audio Coding 3
Коммерческое название : Dolby Digital
Идентификатор кодека : A_AC3
Продолжительность : 2 ч. 7 м.
Вид битрейта : Постоянный
Битрейт : 384 Кбит/сек
Каналы : 2 канала
Channel layout : L R
Частота : 48,0 КГц
Частота кадров : 31,250 кадров/сек (1536 SPF)
Метод сжатия : С потерями
Задержка видео : -5 мс.
Размер потока : 351 Мбайт (12%)
Заголовок : Stereo
Service kind : Complete Main
Default : Да
Forced : Нет
Скриншоты:
Все одноименные релизы в КлубеВремя раздачи: с 11:00 до 23:00 (минимум до появления первых 3-5 скачавших)
[Профиль] [ЛС]
Показать сообщения:    
Ответить на тему

Текущее время: 28-Фев 22:39

Часовой пояс: UTC ± 0



Вы не можете начинать темы
Вы не можете отвечать на сообщения
Вы не можете редактировать свои сообщения
Вы не можете удалять свои сообщения
Вы не можете голосовать в опросах
Вы не можете прикреплять файлы к сообщениям
Вы не можете скачивать файлы

[  Время выполнения: 0,036 сек  |  MySQL: 0,003 сек (9%) · 3 запр.  |  GZIP выкл  |  Память: 422,29 KB / 1,74 MB / 1,34 MB  |  Лимит: 10 10 12  ]