Солнце на вкус (2022) WEBRip [H.264/1080p]

Ответить на тему
 
Автор Сообщение

admin ®

Пол: Не указан

Стаж: 4 месяца 23 дня

Сообщений: 10110

Создавать темы 30-Янв-2024 16:00

[Цитировать]

Солнце на вкус (2022) WEBRip [H.264/1080p] - Производство: Россия, Узбекистан / Агентство кинематографии Узбекистана, Спутник Восток Продакшн
Жанр: фэнтези, комедия
Режиссер: Эльдар Салаватов
Продюсер: Александр Кессель, Фирдавс Абдухаликов, Эдуард Горбенко
Актеры: Леонид Басов, Александр Ильин, Камила Якубова, Андрей Мерзликин, Елена Полякова, Мухаммадисо Абдулхаиров, Аброр Бакиров, Роналдо Ласпинас
Описание:
12-летний Тимур отправляется на каникулы в далекий Узбекистан навестить дедушку. В первый же вечер среди старого хлама в дедушкином сарае ему попадается загадочный медальон с непонятными знаками. Случайная находка оказывается ключом к древним сокровищам Бухарского эмира. Тимуру предстоит найти дорогу к таинственным Часам Мудрецов, попасть в лабиринт времени, а главное — спасти семью.
Возраст: 6+ (зрителям, достигшим 6 лет)
Релиз от: ELEKTRI4KA & UNIONGANG
Продолжительность: 01:32:30
Качество видео: WEBRip
Перевод: Не требуется (Русский)
Субтитры: Отсутствуют
Видео: AVC/H.264, 1920x804, ~6000 Kbps
Аудио: AC3, 2 ch, 192 Kbps | Русский (КиноПоиск HD)

MediaInfo:

Complete name                            : Solntse.na.vkus.2022.WEB-DL.1080p.ELEKTRI4KA.UNIONGANG.mkv
Format : Matroska
Format version : Version 4
File size : 3.99 GiB
Duration : 1 h 32 min
Overall bit rate : 6 173 kb/s
Movie name : Solntse.na.vkus.2022.WEB-DL.1080p.ELEKTRI4KA.UNIONGANG.
Encoded date : UTC 2023-07-08 10:07:47
Writing application : mkvmerge v68.0.0 ('The Curtain') 64-bit
Writing library : libebml v1.4.2 + libmatroska v1.6.4
Video
ID : 1
Format : AVC
Format/Info : Advanced Video Codec
Format profile : High@L4
Format settings : CABAC / 5 Ref Frames
Format settings, CABAC : Yes
Format settings, Reference frames : 5 frames
Codec ID : V_MPEG4/ISO/AVC
Duration : 1 h 32 min
Bit rate : 6 000 kb/s
Width : 1 920 pixels
Height : 804 pixels
Display aspect ratio : 2.40:1
Frame rate mode : Constant
Frame rate : 24.000 FPS
Color space : YUV
Chroma subsampling : 4:2:0
Bit depth : 8 bits
Scan type : Progressive
Bits/(Pixel*Frame) : 0.162
Stream size : 3.86 GiB (97%)
Writing library : x264 core 157
Encoding settings : cabac=1 / ref=5 / deblock=1:0:0 / analyse=0x3:0x133 / me=umh / subme=10 / psy=1 / psy_rd=1.00:0.00 / mixed_ref=1 / me_range=24 / chroma_me=1 / trellis=2 / 8x8dct=1 / cqm=0 / deadzone=21,11 / fast_pskip=1 / chroma_qp_offset=-2 / threads=25 / lookahead_threads=4 / sliced_threads=0 / nr=0 / decimate=1 / interlaced=0 / bluray_compat=0 / stitchable=1 / constrained_intra=0 / bframes=8 / b_pyramid=2 / b_adapt=2 / b_bias=0 / direct=3 / weightb=1 / open_gop=0 / weightp=2 / keyint=250 / keyint_min=24 / scenecut=40 / intra_refresh=0 / rc_lookahead=60 / rc=2pass / mbtree=1 / bitrate=6000 / ratetol=1.0 / qcomp=0.60 / qpmin=0 / qpmax=69 / qpstep=4 / cplxblur=20.0 / qblur=0.5 / vbv_maxrate=6600 / vbv_bufsize=12000 / nal_hrd=none / filler=0 / ip_ratio=1.40 / aq=1:1.00
Default : Yes
Forced : No
Audio
ID : 2
Format : AC-3
Format/Info : Audio Coding 3
Commercial name : Dolby Digital
Codec ID : A_AC3
Duration : 1 h 32 min
Bit rate mode : Constant
Bit rate : 192 kb/s
Channel(s) : 2 channels
Channel layout : L R
Sampling rate : 48.0 kHz
Frame rate : 31.250 FPS (1536 SPF)
Compression mode : Lossy
Stream size : 127 MiB (3%)
Title : Original (KP HD)
Language : Russian
Service kind : Complete Main
Default : Yes
Forced : No
Скриншоты:
Все одноименные релизы в КлубеВремя раздачи: 24/7 (мультитрекерная раздача)
[Профиль] [ЛС]
Показать сообщения:    
Ответить на тему

Текущее время: 22-Фев 01:34

Часовой пояс: UTC ± 0



Вы не можете начинать темы
Вы не можете отвечать на сообщения
Вы не можете редактировать свои сообщения
Вы не можете удалять свои сообщения
Вы не можете голосовать в опросах
Вы не можете прикреплять файлы к сообщениям
Вы не можете скачивать файлы

[  Время выполнения: 0,034 сек  |  MySQL: 0,002 сек (6%) · 3 запр.  |  GZIP выкл  |  Память: 421,85 KB / 1,73 MB / 1,34 MB  |  Лимит: 21 20 19  ]