14+ Продолжение (2023) WEBRip

Ответить на тему
 
Автор Сообщение

admin ®

Пол: Не указан

Стаж: 4 месяца 27 дня

Сообщений: 10110

Создавать темы 30-Янв-2024 16:00

[Цитировать]

14+ Продолжение (2023) WEBRip - Производство: Россия / All Media Company, Сентябрь, START
Жанр: мелодрама
Режиссер: Андрей Зайцев
Продюсер: Андрей Зайцев, Георгий Шабанов, Арпине Хачян
Актеры: Глеб Калюжный, Ульяна Васькович, Ольга Озоллапиня, Полина Гухман, Даниил Пикула, Дмитрий Блохин, Анна Рудь, Алексей Филимонов, Сергей Габриэлян, Александр Кононец
Описание:
История взросления Леши, которому исполнилось 18 лет. Он встречает яркую и открытую Настю, которая переворачивает его привычный мир, но все еще вспоминает свою первую любовь Вику. Он становится взрослее, а проблемы — серьезнее. Но, как и раньше, справиться с жизненными сложностями и ответить на все вопросы о любви, семье и долге Леша должен самостоятельно.
Возраст: 12+ (зрителям, достигшим 12 лет)
Релиз от: ELEKTRI4KA & UNIONGANG
Продолжительность: 02:07:57
Качество видео: WEBRip
Перевод: Не требуется (Русский)
Субтитры: Отсутствуют
Видео: Xvid, 704x400, ~1900 Kbps
Аудио: AC3, 6 ch, 384 Kbps | Русский

MediaInfo:

Общее
Полное имя : G:\14.plyus.Prodolzhenie.2023.WEB-DLRip.ELEKTRI4KA.UNIONGANG.avi
Формат : AVI
Формат/Информация : Audio Video Interleave
Профиль формата : OpenDML
Настройки формата : BitmapInfoHeader / WaveFormatEx
Размер файла : 2,05 Гбайт
Продолжительность : 2 ч. 7 м.
Общий поток : 2 296 Кбит/сек
Частота кадров : 25,000 кадров/сек
Программа кодирования : VirtualDubMod 1.5.10.3 | www.virtualdub-fr.org || (build 2550/release)
Библиотека кодирования : VirtualDubMod build 2550/release
Видео
Идентификатор : 0
Формат : MPEG-4 Visual
Профиль формата : Advanced Simple@L5
Настройки формата : BVOP1 / Custom Matrix
Параметр BVOP формата : 1
Параметр QPel формата : Нет
Параметр GMC формата : Без точки перехода
Параметр матрицы формата : Выборочная
Идентификатор кодека : XVID
Идентификатор кодека/Подсказка : XviD
Продолжительность : 2 ч. 7 м.
Битрейт : 1 900 Кбит/сек
Ширина : 704 пикселя
Высота : 400 пикселей
Соотношение сторон : 16:9
Частота кадров : 25,000 кадров/сек
Цветовое пространство : YUV
Субдискретизация насыщенности : 4:2:0
Битовая глубина : 8 бит
Тип развёртки : Прогрессивная
Метод сжатия : С потерями
Бит/(Пиксели*Кадры) : 0.270
Размер потока : 1,70 Гбайт (83%)
Библиотека кодирования : XviD 67
Аудио
Идентификатор : 1
Формат : AC-3
Формат/Информация : Audio Coding 3
Коммерческое название : Dolby Digital
Идентификатор кодека : 2000
Продолжительность : 2 ч. 7 м.
Вид битрейта : Постоянный
Битрейт : 384 Кбит/сек
Каналы : 6 каналов
Channel layout : L R C LFE Ls Rs
Частота : 48,0 КГц
Частота кадров : 31,250 кадров/сек (1536 SPF)
Метод сжатия : С потерями
Размер потока : 351 Мбайт (17%)
Выравнивание : Разделение по промежуткам
Продолжительность промежутка : 40 мс. (1,00 видеокадр)
Время предзагрузки промежутка : 500 мс.
Service kind : Complete Main
Скриншоты:
Все одноименные релизы в КлубеВремя раздачи: 24/7 (мультитрекерная раздача)
[Профиль] [ЛС]
Показать сообщения:    
Ответить на тему

Текущее время: 25-Фев 22:43

Часовой пояс: UTC ± 0



Вы не можете начинать темы
Вы не можете отвечать на сообщения
Вы не можете редактировать свои сообщения
Вы не можете удалять свои сообщения
Вы не можете голосовать в опросах
Вы не можете прикреплять файлы к сообщениям
Вы не можете скачивать файлы

[  Время выполнения: 0,041 сек  |  MySQL: 0,003 сек (8%) · 3 запр.  |  GZIP выкл  |  Память: 422,29 KB / 1,74 MB / 1,34 MB  |  Лимит: 11 9 10  ]