До рассвета (2023) WEBRip [H.264]

Ответить на тему
 
Автор Сообщение

admin ®

Пол: Не указан

Стаж: 5 месяца 1 день

Сообщений: 10110

Создавать темы 30-Янв-2024 16:00

[Цитировать]

До рассвета (2023) WEBRip [H.264]«Такое только в фильмах с Гослингом бывает!»- Производство: Россия / Футурум
Жанр: комедия, драма
Режиссер: Георгий Даниелянц
Продюсер: Георгий Даниелянц, Александр Глухов, Василина Федорова
Актеры: Сергей Горобченко, Арсений Попов, Артем Крылов, Ангелина Поплавская, Анастасия Лазо, Мария Фортунатова, Вадим Бочанов, Иван Чабан, Антон Захарьин, Андрей Некрасов
Описание:
Новый день — новая жизнь! Герои получают шанс убедиться в достоверности этого утверждения, ведь у каждого из них этой ночью появилась возможность кардинально изменить свою судьбу. И теперь, когда до рассвета осталось всего несколько часов, они должны сделать первый шаг к новой жизни. Но, оказывается, это не так-то просто.
Возраст: 18+ (зрителям, достигшим 18 лет. запрещено для детей)
Продолжительность: 01:27:05
Качество видео: WEBRip
Субтитры: Отсутствуют
Видео: AVC/H.264, 720x302, ~1250 Kbps
Аудио: AAC, 2 ch, 128 Kbps

MediaInfo:

Общее
Уникальный идентификатор : 325951527221519667913250275056485697802 (0xF537FB0D277B83817D9C921EF37C890A)
Полное имя : До рассвета (2023) WEB-DLRip (720x302) AVC.mkv
Формат : Matroska
Версия формата : Version 4 / Version 2
Размер файла : 856 Мбайт
Продолжительность : 1 ч. 27 м.
Общий поток : 1373 Кбит/сек
Дата кодирования : UTC 2023-07-09 10:16:00
Программа кодирования : mkvmerge v56.1.0 ('My Friend') 64-bit
Библиотека кодирования : libebml v1.4.2 + libmatroska v1.6.4
Видео
Идентификатор : 1
Формат : AVC
Формат/Информация : Advanced Video Codec
Профиль формата : High@L3.1
Настройки формата : CABAC / 8 Ref Frames
Параметр CABAC формата : Да
Параметр RefFrames формата : 8 кадров
Идентификатор кодека : V_MPEG4/ISO/AVC
Продолжительность : 1 ч. 27 м.
Битрейт : 1243 Кбит/сек
Ширина : 720 пикселей
Высота : 302 пикселя
Соотношение сторон : 2,40:1
Режим частоты кадров : Постоянный
Частота кадров : 24,000 кадра/сек
Цветовое пространство : YUV
Субдискретизация насыщенности : 4:2:0
Битовая глубина : 8 бит
Тип развёртки : Прогрессивная
Бит/(Пиксели*Кадры) : 0.238
Размер потока : 774 Мбайт (91%)
Default : Да
Forced : Нет
Аудио
Идентификатор : 2
Формат : AAC
Формат/Информация : Advanced Audio Codec
Профиль формата : LC
Идентификатор кодека : A_AAC-2
Продолжительность : 1 ч. 27 м.
Битрейт : 128 Кбит/сек
Каналы : 2 канала
Расположение каналов : Front: L R
Частота : 48,0 КГц
Частота кадров : 46,875 кадров/сек (1024 SPF)
Метод сжатия : С потерями
Задержка видео : 20 мс.
Размер потока : 79,7 Мбайт (9%)
Заголовок : 18+
Язык : Russian
Default : Да
Forced : Нет
Скриншоты:
Все одноименные релизы в КлубеВремя раздачи: 24/7 (до появления первых 3-5 скачавших)
[Профиль] [ЛС]
Показать сообщения:    
Ответить на тему

Текущее время: 29-Фев 13:00

Часовой пояс: UTC ± 0



Вы не можете начинать темы
Вы не можете отвечать на сообщения
Вы не можете редактировать свои сообщения
Вы не можете удалять свои сообщения
Вы не можете голосовать в опросах
Вы не можете прикреплять файлы к сообщениям
Вы не можете скачивать файлы

[  Время выполнения: 0,039 сек  |  MySQL: 0,004 сек (10%) · 5 запр.  |  GZIP выкл  |  Память: 422,29 KB / 1,73 MB / 1,34 MB  |  Лимит: 21 20 18  ]