14+ Продолжение (2023) WEBRip [H.264]

Ответить на тему
 
Автор Сообщение

admin ®

Пол: Не указан

Стаж: 5 месяца 1 день

Сообщений: 10110

Создавать темы 30-Янв-2024 16:00

[Цитировать]

14+ Продолжение (2023) WEBRip [H.264] - Производство: Россия / All Media Company, Сентябрь, START
Жанр: мелодрама
Режиссер: Андрей Зайцев
Продюсер: Андрей Зайцев, Георгий Шабанов, Арпине Хачян
Актеры: Глеб Калюжный, Ульяна Васькович, Ольга Озоллапиня, Полина Гухман, Даниил Пикула, Дмитрий Блохин, Анна Рудь, Алексей Филимонов, Сергей Габриэлян, Александр Кононец
Описание:
История взросления Леши, которому исполнилось 18 лет. Он встречает яркую и открытую Настю, которая переворачивает его привычный мир, но все еще вспоминает свою первую любовь Вику. Он становится взрослее, а проблемы — серьезнее. Но, как и раньше, справиться с жизненными сложностями и ответить на все вопросы о любви, семье и долге Леша должен самостоятельно.
Возраст: 12+ (зрителям, достигшим 12 лет)
Продолжительность: 02:07:57
Качество видео: WEBRip
Субтитры: Отсутствуют
Видео: AVC/H.264, 720x404, ~1250 Kbps
Аудио: AC3, 6 ch, 384 Kbps

MediaInfo:

Общее
Уникальный идентификатор : 314133229017706005118505612807950748132 (0xEC53DBF6724E94D63480CB96AF02C9E4)
Полное имя : 14+ Продолжение (2023) WEBRip (720x404) AVC.mkv
Формат : Matroska
Версия формата : Version 4 / Version 2
Размер файла : 1,45 Гбайт
Продолжительность : 2 ч. 7 м.
Общий поток : 1620 Кбит/сек
Название фильма : 14.plyus.Prodolzhenie.2023
Дата кодирования : UTC 2023-07-09 14:47:21
Программа кодирования : mkvmerge v56.1.0 ('My Friend') 64-bit
Библиотека кодирования : libebml v1.4.2 + libmatroska v1.6.4
Видео
Идентификатор : 1
Формат : AVC
Формат/Информация : Advanced Video Codec
Профиль формата : High@L3.1
Настройки формата : CABAC / 8 Ref Frames
Параметр CABAC формата : Да
Параметр RefFrames формата : 8 кадров
Идентификатор кодека : V_MPEG4/ISO/AVC
Продолжительность : 2 ч. 7 м.
Битрейт : 1235 Кбит/сек
Ширина : 720 пикселей
Высота : 404 пикселя
Соотношение сторон : 16:9
Режим частоты кадров : Постоянный
Частота кадров : 25,000 кадров/сек
Цветовое пространство : YUV
Субдискретизация насыщенности : 4:2:0
Битовая глубина : 8 бит
Тип развёртки : Прогрессивная
Бит/(Пиксели*Кадры) : 0.170
Размер потока : 1,10 Гбайт (76%)
Default : Да
Forced : Нет
Аудио
Идентификатор : 2
Формат : AC-3
Формат/Информация : Audio Coding 3
Параметр Endianness формата : Big
Идентификатор кодека : A_AC3
Продолжительность : 2 ч. 7 м.
Вид битрейта : Постоянный
Битрейт : 384 Кбит/сек
Каналы : 6 каналов
Расположение каналов : Front: L C R, Side: L R, LFE
Частота : 48,0 КГц
Частота кадров : 31,250 кадров/сек (1536 SPF)
Битовая глубина : 16 бит
Метод сжатия : С потерями
Размер потока : 351 Мбайт (24%)
Заголовок : Original AC3 (OKKO)
Язык : Russian
ServiceKind/String : Complete Main
Default : Да
Forced : Да
Скриншоты:
Все одноименные релизы в КлубеВремя раздачи: 24/7 (до 3 скачавших)
[Профиль] [ЛС]
Показать сообщения:    
Ответить на тему

Текущее время: 29-Фев 13:13

Часовой пояс: UTC ± 0



Вы не можете начинать темы
Вы не можете отвечать на сообщения
Вы не можете редактировать свои сообщения
Вы не можете удалять свои сообщения
Вы не можете голосовать в опросах
Вы не можете прикреплять файлы к сообщениям
Вы не можете скачивать файлы

[  Время выполнения: 0,036 сек  |  MySQL: 0,003 сек (8%) · 3 запр.  |  GZIP выкл  |  Память: 422,29 KB / 1,74 MB / 1,34 MB  |  Лимит: 14 15 16  ]