Снегирь (2023) WEBRip

Ответить на тему
 
Автор Сообщение

admin ®

Пол: Не указан

Стаж: 5 месяца

Сообщений: 10110

Создавать темы 30-Янв-2024 16:00

[Цитировать]

Снегирь (2023) WEBRip - Производство: Россия / Студия Глобус, Кинокомпания CTB
Жанр: драма
Режиссер: Борис Хлебников
Актеры: Александр Робак, Тимофей Трибунцев, Евгений Сытый, Сергей Наседкин, Михаил Кремер, Владимир Лукьянчиков, Олег Савостюк, Макар Хлебников, Анатолий Попов, Василий Щипицын
Описание:
Рыболовное судно​ «Снегирь»​ — плавучий дом для банды морских бродяг. Они все разные, но есть кое-что общее: желание взять улов побогаче, хорошо заработать, вернуться на берег живыми. В команду вливаются два новичка​, Никита и Максим. Ледяные волны, работа на износ и компания хмурых моряков — не таким им виделся этот летний круиз. С видео для блога придется повременить и недовольство оставить при себе. Море изменчиво, и шторм — не главное испытание, которое ждет команду корабля.
Возраст: 16+ (зрителям, достигшим 16 лет)
Релиз от: New-Team_JNS82
Продолжительность: 01:51:57
Качество видео: WEBRip
Язык озвучки: Русский
Субтитры: Отсутствуют
Видео: Xvid, 704х384, ~1667 Kbps
Аудио: AC3, 2 ch, 192 Kbps

MediaInfo:

Общее
Полное имя : E:\Загрузки\Snegir.2023.WEB-DLRip_от New-Team_by_JNS82.avi
Формат : AVI
Формат/Информация : Audio Video Interleave
Настройки формата : WaveFormatEx
Размер файла : 1,46 Гбайт
Продолжительность : 1 ч. 51 м.
Общий поток : 1 868 Кбит/сек
Частота кадров : 25,000 кадров/сек
Программа кодирования : VirtualDubModRus 1.5.10.2 (build 2542/release)
Библиотека кодирования : VirtualDubMod build 2542/release
Видео
Идентификатор : 0
Формат : MPEG-4 Visual
Профиль формата : Advanced Simple@L5
Настройки формата : BVOP1 / Custom Matrix
Параметр BVOP формата : 1
Параметр QPel формата : Нет
Параметр GMC формата : Без точки перехода
Параметр матрицы формата : Выборочная
Идентификатор кодека : XVID
Идентификатор кодека/Подсказка : XviD
Продолжительность : 1 ч. 51 м.
Битрейт : 1 667 Кбит/сек
Ширина : 704 пикселя
Высота : 384 пикселя
Соотношение сторон : 1,85:1
Частота кадров : 25,000 кадров/сек
Цветовое пространство : YUV
Субдискретизация насыщенности : 4:2:0
Битовая глубина : 8 бит
Тип развёртки : Прогрессивная
Метод сжатия : С потерями
Бит/(Пиксели*Кадры) : 0.247
Размер потока : 1,30 Гбайт (89%)
Библиотека кодирования : XviD 74
Аудио
Идентификатор : 1
Формат : AC-3
Формат/Информация : Audio Coding 3
Коммерческое название : Dolby Digital
Идентификатор кодека : 2000
Продолжительность : 1 ч. 51 м.
Вид битрейта : Постоянный
Битрейт : 192 Кбит/сек
Каналы : 2 канала
Channel layout : L R
Частота : 48,0 КГц
Частота кадров : 31,250 кадров/сек (1536 SPF)
Метод сжатия : С потерями
Размер потока : 154 Мбайт (10%)
Выравнивание : Разделение по промежуткам
Продолжительность промежутка : 40 мс. (1,00 видеокадр)
Время предзагрузки промежутка : 500 мс.
Service kind : Complete Main
Скриншоты:
Все одноименные релизы в КлубеВремя раздачи: 24/7 (минимум до появления первых 3-5 скачавших)
[Профиль] [ЛС]
Показать сообщения:    
Ответить на тему

Текущее время: 29-Фев 10:54

Часовой пояс: UTC ± 0



Вы не можете начинать темы
Вы не можете отвечать на сообщения
Вы не можете редактировать свои сообщения
Вы не можете удалять свои сообщения
Вы не можете голосовать в опросах
Вы не можете прикреплять файлы к сообщениям
Вы не можете скачивать файлы

[  Время выполнения: 0,030 сек  |  MySQL: 0,002 сек (8%) · 3 запр.  |  GZIP выкл  |  Память: 422,29 KB / 1,72 MB / 1,32 MB  |  Лимит: 11 11 11  ]