Снегирь (2023) WEBRip [H.264/1080p]

Ответить на тему
 
Автор Сообщение

admin ®

Пол: Не указан

Стаж: 6 месяца 22 дня

Сообщений: 11520

Создавать темы 30-Янв-2024 16:00

[Цитировать]

Снегирь (2023) WEBRip [H.264/1080p]- Производство: Россия / Студия Глобус, Кинокомпания CTB
Жанр: драма
Режиссер: Борис Хлебников
Продюсер: Сергей Сельянов, Наталья Дрозд, Наталья Смирнова
Актеры: Александр Робак, Тимофей Трибунцев, Евгений Сытый, Сергей Наседкин, Михаил Кремер, Владимир Лукьянчиков, Олег Савостюк, Макар Хлебников, Анатолий Попов, Василий Щипицын
Описание:
Рыболовное судно​ «Снегирь»​ — плавучий дом для банды морских бродяг. Они все разные, но есть кое-что общее: желание взять улов побогаче, хорошо заработать, вернуться на берег живыми. В команду вливаются два новичка​, Никита и Максим. Ледяные волны, работа на износ и компания хмурых моряков — не таким им виделся этот летний круиз. С видео для блога придется повременить и недовольство оставить при себе. Море изменчиво, и шторм — не главное испытание, которое ждет команду корабля.
Возраст: 16+ (зрителям, достигшим 16 лет)
Релиз от: Soft-Torrent - торрент игры программы фильмы книги скачать|karfagen1975
Продолжительность: 01:52:04
Качество видео: WEBRip
Язык озвучки: Русский
Субтитры: Русские (SDH)
Видео: AVC/H.264, 1920x1036, ~6000 Kbps
Аудио: AAC, 2 ch, 192 Kbps - Русский

MediaInfo:

General
Unique ID : 43790717053233147198858104936224519965 (0x20F1C90B1E45B5AFA7C8C3FBBDE3F71D)
Complete name : Снегирь (2023) WEB-DL 1080p Soft-Torrent - торрент игры программы фильмы книги скачать.mkv
Format : Matroska
Format version : Version 4
File size : 4.81 GiB
Duration : 1 h 52 min
Overall bit rate : 6 148 kb/s
Frame rate : 25.000 FPS
Encoded date : 2023-07-12 21:23:27 UTC
Writing application : mkvmerge v75.0.0 ('Goliath') 64-bit
Writing library : libebml v1.4.4 + libmatroska v1.7.1
Video
ID : 1
Format : AVC
Format/Info : Advanced Video Codec
Format profile : Progressive High@L4
Format settings : CABAC / 4 Ref Frames
Format settings, CABAC : Yes
Format settings, Reference frames : 4 frames
Codec ID : V_MPEG4/ISO/AVC
Duration : 1 h 52 min
Bit rate : 6 000 kb/s
Width : 1 920 pixels
Height : 1 036 pixels
Display aspect ratio : 1.85:1
Frame rate mode : Constant
Frame rate : 25.000 FPS
Color space : YUV
Chroma subsampling : 4:2:0
Bit depth : 8 bits
Scan type : Progressive
Bits/(Pixel*Frame) : 0.121
Stream size : 4.66 GiB (97%)
Title : Снегирь (2023) WEB-DL 1080p Soft-Torrent - торрент игры программы фильмы книги скачать
Writing library : x264 core 157
Encoding settings : cabac=1 / ref=4 / deblock=1:0:0 / analyse=0x3:0x133 / me=umh / subme=10 / psy=1 / psy_rd=1.00:0.00 / mixed_ref=1 / me_range=24 / chroma_me=1 / trellis=2 / 8x8dct=1 / cqm=0 / deadzone=21,11 / fast_pskip=1 / chroma_qp_offset=-2 / threads=32 / lookahead_threads=5 / sliced_threads=0 / nr=0 / decimate=1 / interlaced=0 / bluray_compat=0 / stitchable=1 / constrained_intra=0 / bframes=8 / b_pyramid=2 / b_adapt=2 / b_bias=0 / direct=3 / weightb=1 / open_gop=0 / weightp=2 / keyint=250 / keyint_min=25 / scenecut=40 / intra_refresh=0 / rc_lookahead=60 / rc=2pass / mbtree=1 / bitrate=6000 / ratetol=1.0 / qcomp=0.60 / qpmin=0 / qpmax=69 / qpstep=4 / cplxblur=20.0 / qblur=0.5 / vbv_maxrate=6600 / vbv_bufsize=12000 / nal_hrd=none / filler=0 / ip_ratio=1.40 / aq=1:1.00
Language : Russian
Default : Yes
Forced : No
Audio
ID : 2
Format : AAC LC
Format/Info : Advanced Audio Codec Low Complexity
Codec ID : A_AAC-2
Duration : 1 h 52 min
Bit rate : 192 kb/s
Channel(s) : 2 channels
Channel layout : L R
Sampling rate : 48.0 kHz
Frame rate : 46.875 FPS (1024 SPF)
Compression mode : Lossy
Stream size : 156 MiB (3%)
Language : Russian
Default : Yes
Forced : No
Text
ID : 3
Format : UTF-8
Codec ID : S_TEXT/UTF8
Codec ID/Info : UTF-8 Plain Text
Duration : 1 h 47 min
Bit rate : 102 b/s
Frame rate : 0.244 FPS
Count of elements : 1577
Stream size : 80.8 KiB (0%)
Title : SDH
Language : Russian
Default : No
Forced : No
Скриншоты:

Дополнительные скриншоты:

Все одноименные релизы в КлубеВремя раздачи: 24/7 (круглосуточно) (минимум до появления первых 3-5 скачавших)
[Профиль] [ЛС]
Показать сообщения:    
Ответить на тему

Текущее время: 20-Апр 19:28

Часовой пояс: UTC ± 0



Вы не можете начинать темы
Вы не можете отвечать на сообщения
Вы не можете редактировать свои сообщения
Вы не можете удалять свои сообщения
Вы не можете голосовать в опросах
Вы не можете прикреплять файлы к сообщениям
Вы не можете скачивать файлы

[  Время выполнения: 0,041 сек  |  MySQL: 0,004 сек (9%) · 3 запр.  |  GZIP выкл  |  Память: 422,29 KB / 1,74 MB / 1,36 MB  |  Лимит: 3 4 8  ]