Снегирь (2023) WEBRip [H.264]

Ответить на тему
 
Автор Сообщение

admin ®

Пол: Не указан

Стаж: 6 месяца 22 дня

Сообщений: 11520

Создавать темы 30-Янв-2024 15:59

[Цитировать]

Снегирь (2023) WEBRip [H.264]- Производство: Россия / Студия Глобус, Кинокомпания CTB
Жанр: драма
Режиссер: Борис Хлебников
Продюсер: Сергей Сельянов, Наталья Дрозд, Наталья Смирнова
Актеры: Александр Робак, Тимофей Трибунцев, Евгений Сытый, Сергей Наседкин, Михаил Кремер, Владимир Лукьянчиков, Олег Савостюк, Макар Хлебников, Анатолий Попов, Василий Щипицын
Описание:
Рыболовное судно​ «Снегирь»​ — плавучий дом для банды морских бродяг. Они все разные, но есть кое-что общее: желание взять улов побогаче, хорошо заработать, вернуться на берег живыми. В команду вливаются два новичка​, Никита и Максим. Ледяные волны, работа на износ и компания хмурых моряков — не таким им виделся этот летний круиз. С видео для блога придется повременить и недовольство оставить при себе. Море изменчиво, и шторм — не главное испытание, которое ждет команду корабля.
Возраст: 16+ (зрителям, достигшим 16 лет)
Продолжительность: 01:52:04
Качество видео: WEBRip
Субтитры: Русские (SDH)
Видео: AVC/H.264, 720x388, ~1250 Kbps
Аудио: AAC, 2 ch, 192 Kbps | Русский

MediaInfo:

Общее
Уникальный идентификатор : 256467743279582903635167369490115307214 (0xC0F1E401F9F20877DF340EF935FBA6CE)
Полное имя : Снегирь (2023) WEBRip (720x388) AVC.mkv
Формат : Matroska
Версия формата : Version 4 / Version 2
Размер файла : 1,13 Гбайт
Продолжительность : 1 ч. 52 м.
Общий поток : 1447 Кбит/сек
Дата кодирования : UTC 2023-07-12 23:29:49
Программа кодирования : mkvmerge v56.1.0 ('My Friend') 64-bit
Библиотека кодирования : libebml v1.4.2 + libmatroska v1.6.4
Видео
Идентификатор : 1
Формат : AVC
Формат/Информация : Advanced Video Codec
Профиль формата : High@L3.1
Настройки формата : CABAC / 8 Ref Frames
Параметр CABAC формата : Да
Параметр RefFrames формата : 8 кадров
Идентификатор кодека : V_MPEG4/ISO/AVC
Продолжительность : 1 ч. 52 м.
Битрейт : 1250 Кбит/сек
Ширина : 720 пикселей
Высота : 388 пикселей
Соотношение сторон : 1,85:1
Режим частоты кадров : Постоянный
Частота кадров : 25,000 кадров/сек
Цветовое пространство : YUV
Субдискретизация насыщенности : 4:2:0
Битовая глубина : 8 бит
Тип развёртки : Прогрессивная
Бит/(Пиксели*Кадры) : 0.179
Размер потока : 1002 Мбайт (86%)
Default : Да
Forced : Нет
Аудио
Идентификатор : 2
Формат : AAC
Формат/Информация : Advanced Audio Codec
Профиль формата : LC
Идентификатор кодека : A_AAC-2
Продолжительность : 1 ч. 52 м.
Битрейт : 192 Кбит/сек
Каналы : 2 канала
Расположение каналов : Front: L R
Частота : 48,0 КГц
Частота кадров : 46,875 кадров/сек (1024 SPF)
Метод сжатия : С потерями
Размер потока : 156 Мбайт (13%)
Язык : Russian
Default : Да
Forced : Нет
Текст
Идентификатор : 3
Формат : UTF-8
Идентификатор кодека : S_TEXT/UTF8
Идентификатор кодека/Информация : UTF-8 Plain Text
Продолжительность : 1 ч. 47 м.
Битрейт : 102 бит/сек
ElementCount : 1577
Размер потока : 80,8 Кбайт (0%)
Заголовок : SDH
Язык : Russian
Default : Да
Forced : Нет
Скриншоты:
Все одноименные релизы в КлубеВремя раздачи: 24/7 (круглосуточно) (минимум до появления первых 3-5 скачавших)
[Профиль] [ЛС]
Показать сообщения:    
Ответить на тему

Текущее время: 20-Апр 19:45

Часовой пояс: UTC ± 0



Вы не можете начинать темы
Вы не можете отвечать на сообщения
Вы не можете редактировать свои сообщения
Вы не можете удалять свои сообщения
Вы не можете голосовать в опросах
Вы не можете прикреплять файлы к сообщениям
Вы не можете скачивать файлы

[  Время выполнения: 0,036 сек  |  MySQL: 0,002 сек (7%) · 3 запр.  |  GZIP выкл  |  Память: 422,29 KB / 1,74 MB / 1,34 MB  |  Лимит: 6 5 6  ]