Достать ножи: Стеклянная луковица / Glass Onion: A Knives Out Mystery (2022) WEB-DLRip [H.264/1080p-LQ] [MVO, AD]

Ответить на тему
 
Автор Сообщение

admin ®

Пол: Не указан

Стаж: 7 месяца 24 дня

Сообщений: 11520

Создавать темы 30-Янв-2024 15:59

[Цитировать]

Достать ножи: Стеклянная луковица / Glass Onion: A Knives Out Mystery (2022) WEB-DLRip [H.264/1080p-LQ]
«A Rian Johnson Whodunit»
- Производство: США / Netflix, T-Street
Жанр: детектив, комедия, криминал
Режиссер: Райан Джонсон
Продюсер: Рэм Бергман, Леопольд Хьюз, Райан Джонсон и др.
Актеры: Дэниэл Крэйг, Эдвард Нортон, Жанель Моне, Кэтрин Хан, Лесли Одом мл., Кейт Хадсон, Дэйв Батиста, Джессика Хенвик, Мэдлин Клайн, Ноа Сеган
Описание:
Частный детектив Бенуа Блан отправляется в Грецию, где ему снова попадается запутанное дельце.
Рейтинг MPAA: PG-13 (детям до 13 лет просмотр нежелателен)
Цифровой релиз: 23 декабря 2022, «Netflix»
Релиз от: Kuzmich
Продолжительность: 02:21:56
Качество видео: WEB-DLRip 1080p
Перевод: Многоголосый любительский (КОЛОБОК)
Язык озвучки: Русский
Субтитры: Отсутствуют
Реклама: Присутствует баннер, вставки аудио и видео рекламы
Видео: AVC/H.264, 1920x1036, ~9392 Kbps
Аудио: AAC, 2 ch, 576 Kbps

MediaInfo:

General
Unique ID : 195509872265192393762209810525876565961 (0x9315D4ED09460A6797AA0053B44AB7C9)
Complete name : E:\Torrents\Glass.Onion.A.Knives.Out.Mystery.2022.Pk.WEB-DLRip.1080p.Soft-Torrent - торрент игры программы фильмы книги скачать.mkv
Format : Matroska
Format version : Version 2
File size : 9.88 GiB
Duration : 2 h 21 min
Overall bit rate : 9 968 kb/s
Encoded date : UTC 2022-12-23 10:50:21
Writing application : mkvmerge v8.3.0 ('Over the Horizon') 64bit
Writing library : libebml v1.3.1 + libmatroska v1.4.2
Video
ID : 1
Format : AVC
Format/Info : Advanced Video Codec
Format profile : High@L4.1
Format settings : CABAC / 4 Ref Frames
Format settings, CABAC : Yes
Format settings, Reference frames : 4 frames
Codec ID : V_MPEG4/ISO/AVC
Duration : 2 h 21 min
Bit rate mode : Constant
Bit rate : 9 392 kb/s
Nominal bit rate : 10 000 kb/s
Width : 1 920 pixels
Height : 1 036 pixels
Display aspect ratio : 1.85:1
Frame rate mode : Constant
Frame rate : 23.976 (24000/1001) FPS
Standard : Component
Color space : YUV
Chroma subsampling : 4:2:0
Bit depth : 8 bits
Scan type : Progressive
Bits/(Pixel*Frame) : 0.197
Stream size : 9.31 GiB (94%)
Default : Yes
Forced : No
Color range : Limited
Color primaries : BT.709
Transfer characteristics : BT.709
Matrix coefficients : BT.709
Audio
ID : 2
Format : AAC Main
Format/Info : Advanced Audio Codec
Codec ID : A_AAC-1
Duration : 2 h 21 min
Bit rate : 576 kb/s
Channel(s) : 2 channels
Channel layout : L R
Sampling rate : 48.0 kHz
Frame rate : 46.875 FPS (1024 SPF)
Compression mode : Lossy
Stream size : 582 MiB (6%)
Default : Yes
Forced : No
Скриншоты:
Все одноименные релизы в КлубеВремя раздачи: 24/7 (минимум до появления первых 3-5 скачавших)
[Профиль] [ЛС]
Показать сообщения:    
Ответить на тему

Текущее время: 23-Май 06:12

Часовой пояс: UTC ± 0



Вы не можете начинать темы
Вы не можете отвечать на сообщения
Вы не можете редактировать свои сообщения
Вы не можете удалять свои сообщения
Вы не можете голосовать в опросах
Вы не можете прикреплять файлы к сообщениям
Вы не можете скачивать файлы

[  Время выполнения: 0,038 сек  |  MySQL: 0,003 сек (8%) · 3 запр.  |  GZIP выкл  |  Память: 422,49 KB / 1,74 MB / 1,34 MB  |  Лимит: 6 9 12  ]