М3ГАН / M3GAN (2022) WEB-DLRip [H.264/1080p] [MVO, AD]

Ответить на тему
 
Автор Сообщение

admin ®

Пол: Не указан

Стаж: 5 месяца

Сообщений: 10110

Создавать темы 30-Янв-2024 15:59

[Цитировать]

М3ГАН / M3GAN (2022) WEB-DLRip [H.264/1080p] - Производство: США, Новая Зеландия / Atomic Monster, Blumhouse Productions
Жанр: ужасы
Режиссер: Джерард Джонстоун
Продюсер: Джейсон Блум, Майкл Клиар, Купер Самуэльсон и др.
Актеры: Эллисон Уильямс, Вайолет Макгроу, Ронни Чиэн, Эми Дональд, Дженна Дэвис, Брайан Джордан Альварез, Джен Браун, Стефан Гарно, Лори Дунги, Эми Ашервуд
Описание:
Джемма — робототехник в компании по производству игрушек. Неожиданно получив опеку над осиротевшей племянницей, она дарит девочке экспериментальную куклу-андроида, которая очень буквально понимает свою миссию защищать ребенка.
Рейтинг MPAA: PG-13 (детям до 13 лет просмотр нежелателен)
Дата мировой премьеры: 7 декабря 2022
Релиз от: ks-film
Продолжительность: 01:41:57
Качество видео: WEB-DLRip 1080p
Перевод: Многоголосый любительский (Колобок)
Язык озвучки: русский
Субтитры: отсутствуют
Реклама: присутствует только баннер
Видео: AVC/H.264, 1920x1080, 9106 Kbps
Аудио: AAC, 2 ch, 192 Kbps, русский

MediaInfo:

General
Complete name : F:\М3ГАН. M3GAN (2022) WEB-DLRip [H.264-1080p].mp4
Format : MPEG-4
Format profile : Base Media
Codec ID : isom (isom/iso2/avc1/mp41)
File size : 6.63 GiB
Duration : 1 h 41 min
Overall bit rate : 9 307 kb/s
Writing application : Lavf58.12.100
Video
ID : 1
Format : AVC
Format/Info : Advanced Video Codec
Format profile : Main@L4.2
Format settings : CABAC / 1 Ref Frames
Format settings, CABAC : Yes
Format settings, Reference frames : 1 frame
Format settings, GOP : M=1, N=25
Codec ID : avc1
Codec ID/Info : Advanced Video Coding
Duration : 1 h 41 min
Bit rate : 9 106 kb/s
Width : 1 920 pixels
Height : 1 080 pixels
Display aspect ratio : 16:9
Frame rate mode : Constant
Frame rate : 24.000 FPS
Standard : Component
Color space : YUV
Chroma subsampling : 4:2:0
Bit depth : 8 bits
Scan type : Progressive
Bits/(Pixel*Frame) : 0.183
Stream size : 6.49 GiB (98%)
Color range : Limited
Matrix coefficients : BT.709
Codec configuration box : avcC
Audio
ID : 2
Format : AAC LC
Format/Info : Advanced Audio Codec Low Complexity
Codec ID : mp4a-40-2
Duration : 1 h 41 min
Bit rate mode : Constant
Bit rate : 192 kb/s
Channel(s) : 2 channels
Channel layout : L R
Sampling rate : 48.0 kHz
Frame rate : 46.875 FPS (1024 SPF)
Compression mode : Lossy
Stream size : 142 MiB (2%)
Default : Yes
Alternate group : 1
Скриншоты:


Все одноименные релизы в Клубе
Время раздачи: 24/7 (минимум до появления первых 3-5 скачавших)
[Профиль] [ЛС]
Показать сообщения:    
Ответить на тему

Текущее время: 28-Фев 23:00

Часовой пояс: UTC ± 0



Вы не можете начинать темы
Вы не можете отвечать на сообщения
Вы не можете редактировать свои сообщения
Вы не можете удалять свои сообщения
Вы не можете голосовать в опросах
Вы не можете прикреплять файлы к сообщениям
Вы не можете скачивать файлы

[  Время выполнения: 0,028 сек  |  MySQL: 0,003 сек (9%) · 3 запр.  |  GZIP выкл  |  Память: 422,29 KB / 1,71 MB / 1,32 MB  |  Лимит: 10 9 10  ]