Вавилон / Babylon (2022) WEB-DLRip [H.264/1080p] [MVO] [AD]

Ответить на тему
 
Автор Сообщение

admin ®

Пол: Не указан

Стаж: 5 месяца 1 день

Сообщений: 10110

Создавать темы 30-Янв-2024 15:59

[Цитировать]

Вавилон / Babylon (2022) WEB-DLRip [H.264/1080p]- Производство: США / Paramount Pictures, Marc Platt Productions, Material Pictures
Жанр: драма, комедия, история
Режиссер: Дэмьен Шазелл
Продюсер: Оливия Хэмилтон, Марк Э. Платт, Мэттью Плоуффе
Актеры: Диего Калва, Марго Робби, Брэд Питт, Джован Адепо, Ли Цзюнь Ли, Джин Смарт, Оливия Хэмилтон, П.Дж. Бирн, Лукас Хаас, Макс Мингелла.
Описание:
Голливуд, конец 1920-х. Звезды немого кино пытаются найти место в новом мире, где набирают популярность звуковые фильмы. Успешная карьера старых кумиров неумолимо близится к закату.
Возраст: 18+ (зрителям, достигшим 18 лет. запрещено для детей)
Рейтинг MPAA: R (лицам до 17 лет обязательно присутствие взрослого)
Дата мировой премьеры: 23 декабря 2022
Продолжительность: 03:09:12
Качество видео: WEB-DLRip
Перевод: Многоголосый любительский (MUZOBOZ)
Язык озвучки: Русский
Субтитры: отсутствуют
Реклама: присутствует логотип букмекерской конторы
Видео: AVC/H.264, 1920x800, ~8989 Kbps
Аудио: AAC, 2 ch, 192 Kbps, Русский

MediaInfo:

Общее
Уникальный идентификатор : 117029797328260938543851394982934821313 (0x580B1E7DBB3390934B172567A8BD39C1)
Полное имя : F:\Vavilon 2022.mkv
Формат : Matroska
Версия формата : Version 4
Размер файла : 12,1 Гбайт
Продолжительность : 3 ч. 9 м.
Общий поток : 9 187 Кбит/сек
Дата кодирования : UTC 2023-02-04 01:29:17
Программа кодирования : mkvmerge v73.0.0 ('25 or 6 to 4') 64-bit
Библиотека кодирования : libebml v1.4.4 + libmatroska v1.7.1
Видео
Идентификатор : 1
Формат : AVC
Формат/Информация : Advanced Video Codec
Профиль формата : Main@L4.2
Настройки формата : CABAC / 1 Ref Frames
Параметр CABAC формата : Да
Параметр RefFrames формата : 1 кадр
Параметр GOP формата : M=1, N=25
Идентификатор кодека : V_MPEG4/ISO/AVC
Продолжительность : 3 ч. 9 м.
Битрейт : 8 989 Кбит/сек
Ширина : 1 920 пикселей
Высота : 800 пикселей
Соотношение сторон : 2,40:1
Режим частоты кадров : Постоянный
Частота кадров : 23,976 (24000/1001) кадра/сек
Стандарт вещания : Component
Цветовое пространство : YUV
Субдискретизация насыщенности : 4:2:0
Битовая глубина : 8 бит
Тип развёртки : Прогрессивная
Бит/(Пиксели*Кадры) : 0.244
Размер потока : 11,9 Гбайт (98%)
Default : Да
Forced : Нет
Цветовой диапазон : Limited
Коэффициенты матрицы : BT.709
Аудио
Идентификатор : 2
Формат : AAC LC
Формат/Информация : Advanced Audio Codec Low Complexity
Идентификатор кодека : A_AAC-2
Продолжительность : 3 ч. 9 м.
Битрейт : 192 Кбит/сек
Каналы : 2 канала
Channel layout : L R
Частота : 48,0 КГц
Частота кадров : 46,875 кадров/сек (1024 SPF)
Метод сжатия : С потерями
Размер потока : 264 Мбайт (2%)
Default : Да
Forced : Нет
Скриншоты:
Все одноименные релизы в КлубеВремя раздачи: 24/7 (минимум до появления первых 3-5 скачавших)
[Профиль] [ЛС]
Показать сообщения:    
Ответить на тему

Текущее время: 29-Фев 12:34

Часовой пояс: UTC ± 0



Вы не можете начинать темы
Вы не можете отвечать на сообщения
Вы не можете редактировать свои сообщения
Вы не можете удалять свои сообщения
Вы не можете голосовать в опросах
Вы не можете прикреплять файлы к сообщениям
Вы не можете скачивать файлы

[  Время выполнения: 0,035 сек  |  MySQL: 0,003 сек (8%) · 3 запр.  |  GZIP выкл  |  Память: 422,29 KB / 1,74 MB / 1,34 MB  |  Лимит: 16 16 15  ]