Уитни Хьюстон. Потанцуйте со мной / Whitney Houston: I Wanna Dance with Somebody (2022) WEBRip [MVO, AD]

Ответить на тему
 
Автор Сообщение

admin ®

Пол: Не указан

Стаж: 4 месяца 27 дня

Сообщений: 10110

Создавать темы 30-Янв-2024 15:59

[Цитировать]

Уитни Хьюстон. Потанцуйте со мной / Whitney Houston: I Wanna Dance with Somebody (2022) WEBRip - Производство: США / Compelling Pictures, Black Label Media, Muse of Fire
Жанр: биография, музыка, драма
Режиссер: Кейси Леммонс
Продюсер: Клив Дэвис, Мэтт Джексон, Тэд Лакинбилл
Актеры: Наоми Аки, Стэнли Туччи, Эштон Сандерс,Тамара Тюни, Нафиса Уильямс, Кларк Питерс, Дэниэл Вашингтон, Бэйли Лопес, Брайа Д. Синглтон, Жакан Малик Джонс
Описание:
Радостное, эмоциональное, душераздирающее празднование жизни и музыки Уитни Хьюстон, одной из величайших R&B-поп-вокалисток всех времен. Фильм расскажет о ее пути от безвестности до музыкальной суперзвезды.
Рейтинг MPAA: PG-13 (детям до 13 лет просмотр нежелателен)
Дата мировой премьеры: 18 декабря 2022
Релиз от: nitrofla
Продолжительность: 02:25:13
Качество видео: WEBRip
Перевод: Многоголосый любительский ("Синема УС")
Язык озвучки: Русский
Субтитры: отсутствуют
Реклама: Присутствуют рекламные вставки!
Видео: Xvid, 720x304, ~1149 Kbps
Аудио: AC3, 2 ch, 192 Kbps

MediaInfo:

Общее
Полное имя : J:\КЛАССИКА ЗАРУБЕЖНОГО КИНО\Whitney.Houston.I.Wanna.Dance.with.Somebody.2022.P.WEB._DLRip.14OOMB.avi
Формат : AVI
Формат/Информация : Audio Video Interleave
Размер файла : 1,37 Гбайт
Продолжительность : 2 ч. 25 м.
Общий поток : 1 350 Кбит/сек
Программа кодирования : VirtualDubMod 1.5.10.3 | www.virtualdub-fr.org || (build 2550/release)
Библиотека кодирования : VirtualDubMod build 2550/release
Видео
Идентификатор : 0
Формат : MPEG-4 Visual
Профиль формата : Advanced Simple@L5
Настройки формата : BVOP2 / Custom Matrix
Параметр BVOP формата : 2
Параметр QPel формата : Нет
Параметр GMC формата : Без точки перехода
Параметр матрицы формата : Выборочная
Идентификатор кодека : XVID
Идентификатор кодека/Подсказка : XviD
Продолжительность : 2 ч. 25 м.
Битрейт : 1 149 Кбит/сек
Ширина : 720 пикселей
Высота : 304 пикселя
Соотношение сторон : 2,35:1
Частота кадров : 23,976 (24000/1001) кадра/сек
Цветовое пространство : YUV
Субдискретизация насыщенности : 4:2:0
Битовая глубина : 8 бит
Тип развёртки : Прогрессивная
Метод сжатия : С потерями
Бит/(Пиксели*Кадры) : 0.219
Размер потока : 1,17 Гбайт (85%)
Библиотека кодирования : XviD 1.2.1 (UTC 2008-12-04)
Аудио
Идентификатор : 1
Формат : AC-3
Формат/Информация : Audio Coding 3
Коммерческое название : Dolby Digital
Идентификатор кодека : 2000
Продолжительность : 2 ч. 25 м.
Вид битрейта : Постоянный
Битрейт : 192 Кбит/сек
Каналы : 2 канала
Channel layout : L R
Частота : 48,0 КГц
Частота кадров : 31,250 кадров/сек (1536 SPF)
Метод сжатия : С потерями
Размер потока : 199 Мбайт (14%)
Выравнивание : Разделение по промежуткам
Продолжительность промежутка : 42 мс. (1,00 видеокадр)
Время предзагрузки промежутка : 500 мс.
Service kind : Complete Main
Скриншоты:
Все одноименные релизы в КлубеВремя раздачи: с 11:00 до 23:00 (минимум до появления первых 3-5 скачавших)
[Профиль] [ЛС]
Показать сообщения:    
Ответить на тему

Текущее время: 25-Фев 19:20

Часовой пояс: UTC ± 0



Вы не можете начинать темы
Вы не можете отвечать на сообщения
Вы не можете редактировать свои сообщения
Вы не можете удалять свои сообщения
Вы не можете голосовать в опросах
Вы не можете прикреплять файлы к сообщениям
Вы не можете скачивать файлы

[  Время выполнения: 0,035 сек  |  MySQL: 0,004 сек (11%) · 3 запр.  |  GZIP выкл  |  Память: 422,29 KB / 1,72 MB / 1,32 MB  |  Лимит: 12 14 16  ]