Уитни Хьюстон. Потанцуйте со мной / Whitney Houston: I Wanna Dance with Somebody (2022) WEBRip [H.264/720p-LQ] [MVO, AD]

Ответить на тему
 
Автор Сообщение

admin ®

Пол: Не указан

Стаж: 4 месяца 27 дня

Сообщений: 10110

Создавать темы 30-Янв-2024 15:59

[Цитировать]

Уитни Хьюстон. Потанцуйте со мной / Whitney Houston: I Wanna Dance with Somebody (2022) WEBRip [H.264/720p]- Производство: США / Compelling Pictures, Black Label Media, Muse of Fire
Жанр: биография, музыка, драма
Режиссер: Кейси Леммонс
Продюсер: Клив Дэвис, Мэтт Джексон, Тэд Лакинбилл
Актеры: Наоми Аки, Стэнли Туччи, Эштон Сандерс, Тамара Тюни, Нафиса Уильямс, Кларк Питерс, Дэниэл Вашингтон, Бэйли Лопес, Брайа Д. Синглтон, Жакан Малик Джонс
Описание:
Душераздирающая и полная эмоций история жизни и творчества Уитни Хьюстон, одной из величайших певиц.
Её путь от хористки из Нью-Джерси до одной из самых именитых и высокооплачиваемых артисток всех времен.
Рейтинг MPAA: PG-13 (детям до 13 лет просмотр нежелателен)
Дата мировой премьеры: 18 декабря 2022
Продолжительность: 02:24:21
Качество видео: WEBRip
Перевод: Многоголосый любительский ("Синема УС")
Язык озвучки: русский
Субтитры: отсутствуют
Реклама: присутствует логотип букмекерской конторы
Видео: AVC/H.264, 1280x532, ~3300 Kbps
Аудио: AAC, 2 ch, 192 Kbps

MediaInfo:

Общее
Уникальный идентификатор : 225914388155930892382800871699144582787 (0xA9F5874BE3E56033F4AFEC0908E52683)
Полное имя : E:\Whitney Houston 2022.mkv
Формат : Matroska
Версия формата : Version 4
Размер файла : 3,52 Гбайт
Продолжительность : 2 ч. 24 м.
Общий поток : 3 494 Кбит/сек
Дата кодирования : UTC 2023-02-10 15:00:23
Программа кодирования : mkvmerge v73.0.0 ('25 or 6 to 4') 64-bit
Библиотека кодирования : libebml v1.4.4 + libmatroska v1.7.1
Видео
Идентификатор : 1
Формат : AVC
Формат/Информация : Advanced Video Codec
Профиль формата : Main@L4.2
Настройки формата : CABAC / 1 Ref Frames
Параметр CABAC формата : Да
Параметр RefFrames формата : 1 кадр
Параметр GOP формата : M=1, N=25
Идентификатор кодека : V_MPEG4/ISO/AVC
Продолжительность : 2 ч. 24 м.
Битрейт : 3 300 Кбит/сек
Ширина : 1 280 пикселей
Высота : 532 пикселя
Соотношение сторон : 2,40:1
Режим частоты кадров : Постоянный
Частота кадров : 23,976 (24000/1001) кадра/сек
Стандарт вещания : Component
Цветовое пространство : YUV
Субдискретизация насыщенности : 4:2:0
Битовая глубина : 8 бит
Тип развёртки : Прогрессивная
Бит/(Пиксели*Кадры) : 0.202
Размер потока : 3,33 Гбайт (94%)
Default : Да
Forced : Нет
Цветовой диапазон : Limited
Коэффициенты матрицы : BT.709
Аудио
Идентификатор : 2
Формат : AAC LC
Формат/Информация : Advanced Audio Codec Low Complexity
Идентификатор кодека : A_AAC-2
Продолжительность : 2 ч. 24 м.
Битрейт : 192 Кбит/сек
Каналы : 2 канала
Channel layout : L R
Частота : 48,0 КГц
Частота кадров : 46,875 кадров/сек (1024 SPF)
Метод сжатия : С потерями
Размер потока : 200 Мбайт (6%)
Default : Да
Forced : Нет
Скриншоты:
Все одноименные релизы в КлубеВремя раздачи: 24/7 (минимум до появления первых 3-5 скачавших)
[Профиль] [ЛС]
Показать сообщения:    
Ответить на тему

Текущее время: 25-Фев 19:33

Часовой пояс: UTC ± 0



Вы не можете начинать темы
Вы не можете отвечать на сообщения
Вы не можете редактировать свои сообщения
Вы не можете удалять свои сообщения
Вы не можете голосовать в опросах
Вы не можете прикреплять файлы к сообщениям
Вы не можете скачивать файлы

[  Время выполнения: 0,038 сек  |  MySQL: 0,003 сек (8%) · 3 запр.  |  GZIP выкл  |  Память: 422,29 KB / 1,74 MB / 1,34 MB  |  Лимит: 10 10 12  ]