Из изгнания / Out of Exile (2022) WEB-DLRip [H.264/1080p-LQ] [MVO, AD]

Ответить на тему
 
Автор Сообщение

admin ®

Пол: Не указан

Стаж: 4 месяца 23 дня

Сообщений: 10110

Создавать темы 30-Янв-2024 15:58

[Цитировать]

Из изгнания / Out of Exile (2022) WEB-DLRip [H.264/1080p-LQ]- Производство: США / Through Films, Freestyle Creative, Perm Machine, Gerson Productions, SafeHouse Films, Axtion Pictures
Жанр: триллер, драма, криминал
Режиссер: Kyle Kauwika Harris
Продюсер: Кэрри Кокс, Маркус Кокс, Kelley Gann
Актеры: Питер Грин, Хейли МакФарланд, Райан Мерриман, Адам Хэмптон, Джейк Робертс, Кайл Джейкоб Генри, Люче Рэйнс, Лори Каммингс, Конни Франклин, Брюс Дэвис
Описание:
После неудачного ограбления бронированного автомобиля недавно условно освобожденный вор пытается наладить свою жизнь и разобраться с проблемами в семье, в то время как решительный агент ФБР выслеживает его и его команду.
Рейтинг MPAA: R (лицам до 17 лет обязательно присутствие взрослого)
Дата мировой премьеры: 9 июня 2022
Релиз от: Anrif
Продолжительность: 01:46:45
Качество видео: WEB-DLRip (1080p)
Перевод: Любительский многоголосый (Синема УС)
Язык озвучки: Русский
Субтитры: Отсутствуют
Реклама: Присутствует баннер!
Видео: AVC/H.264, 1920x800, ~6156 kbps
Аудио: AС-3, 2 ch, 192 kbps

MediaInfo:

Общее
Уникальный идентификатор : 210287351339708981032663961890780197165 (0x9E33DEE559963844BB4CECE1A7F9B12D)
Полное имя : F:\[Anf].Out.of.Exile.(2022).MVO.WEB-DLRip.[1080p-LQ].mkv
Формат : Matroska
Версия формата : Version 4
Размер файла : 4,74 Гбайт
Продолжительность : 1 ч. 46 м.
Режим общего битрейта : Постоянный
Общий поток : 6 350 Кбит/сек
Название фильма : Из изгнания / Out of Exile (2022)
Дата кодирования : UTC 2023-02-27 19:52:33
Программа кодирования : mkvmerge v8.3.0 ('Over the Horizon') 64bit
Библиотека кодирования : libebml v1.3.1 + libmatroska v1.4.2
Обложка : Yes
Attachments : cover.jpg
Видео
Идентификатор : 1
Формат : AVC
Формат/Информация : Advanced Video Codec
Профиль формата : High@L4.1
Настройки формата : CABAC / 4 Ref Frames
Параметр CABAC формата : Да
Параметр RefFrames формата : 4 кадра
Идентификатор кодека : V_MPEG4/ISO/AVC
Продолжительность : 1 ч. 46 м.
Вид битрейта : Постоянный
Битрейт : 6 156 Кбит/сек
Номинальный битрейт : 7 000 Кбит/сек
Ширина : 1 920 пикселей
Высота : 800 пикселей
Соотношение сторон : 2,40:1
Режим частоты кадров : Постоянный
Частота кадров : 23,976 (24000/1001) кадра/сек
Стандарт вещания : Component
Цветовое пространство : YUV
Субдискретизация насыщенности : 4:2:0
Битовая глубина : 8 бит
Тип развёртки : Прогрессивная
Бит/(Пиксели*Кадры) : 0.167
Размер потока : 4,59 Гбайт (97%)
Заголовок : -=Anrif=-
Язык : English
Default : Да
Forced : Да
Цветовой диапазон : Limited
Основные цвета : BT.709
Характеристики трансфера : BT.709
Коэффициенты матрицы : BT.709
Аудио
Идентификатор : 2
Формат : AC-3
Формат/Информация : Audio Coding 3
Коммерческое название : Dolby Digital
Идентификатор кодека : A_AC3
Продолжительность : 1 ч. 46 м.
Вид битрейта : Постоянный
Битрейт : 192 Кбит/сек
Каналы : 2 канала
Channel layout : L R
Частота : 48,0 КГц
Частота кадров : 31,250 кадров/сек (1536 SPF)
Метод сжатия : С потерями
Размер потока : 147 Мбайт (3%)
Заголовок : MVO [Синема УС]
Язык : Russian
Service kind : Complete Main
Default : Да
Forced : Да
Скриншоты: Все одноименные релизы в Клубе Время раздачи: с 18:00 до 24:00 (до первых 3-5 скачавших)
[Профиль] [ЛС]
Показать сообщения:    
Ответить на тему

Текущее время: 22-Фев 00:17

Часовой пояс: UTC ± 0



Вы не можете начинать темы
Вы не можете отвечать на сообщения
Вы не можете редактировать свои сообщения
Вы не можете удалять свои сообщения
Вы не можете голосовать в опросах
Вы не можете прикреплять файлы к сообщениям
Вы не можете скачивать файлы

[  Время выполнения: 0,028 сек  |  MySQL: 0,003 сек (10%) · 3 запр.  |  GZIP выкл  |  Память: 421,85 KB / 1,72 MB / 1,32 MB  |  Лимит: 15 14 11  ]