Бойся тишины / Sound of Silence (2022) WEBRip [H.264/1080p-LQ] [Line, AD]

Ответить на тему
 
Автор Сообщение

admin ®

Пол: Не указан

Стаж: 5 месяца 1 день

Сообщений: 10110

Создавать темы 30-Янв-2024 15:58

[Цитировать]

Бойся тишины / Sound of Silence (2022) WEBRip [H.264/1080p-LQ] «Не дай им услышать тебя»- Производство: Италия / Eryde Produzioni, T3 Directors S.r.l.
Жанр: ужасы
Режиссер: Алессандро Антоначи, Даниэль Ласкар, Стефано Мандала
Продюсер: Алессандро Антоначи, Даниэль Ласкар, Стефано Мандала
Актеры: Люсия Капорасо, Кьяра Касолари, Даниэле Де Мартино, Клаудио Дугера, Рокко Мараццита, Алессандро Марморини, Сандра Пиццулло, Пенелопа Санджорджи, Питер Стивен Волмаранс
Описание:
После несчастного случая, произошедшего с ее отцом, Эмма приезжает из Нью-Йорка в родной дом. Там она сталкивается с загадочным явлением: когда наступает тишина, где бы Эмма ни находилась — при любом звуке или шорохе на нее нападают зловещие существа из потустороннего мира.
Возраст: 16+ (зрителям, достигшим 16 лет)
Дата мировой премьеры: 9 февраля 2023
Дата российской премьеры: 2 марта 2023, «World Pictures»
Релиз от: Anrif
Продолжительность: 01:32:00
Качество видео: WEBRip (1080p)
Перевод: Дублированный (Line)
Язык озвучки: Русский
Субтитры: Английские (hardsub)
Реклама: Присутствует баннер!
Видео: AVC/H.264, 1920x800, ~6315 kbps
Аудио: AС-3, 2 ch, 192 kbps

MediaInfo:

Общее
Уникальный идентификатор : 247880288665243469740639350755777250506 (0xBA7C01CE72516A8694FF9F0F302B04CA)
Полное имя : F:\Sound.of.Silence.(2022).WEB-DLRip.[1080p-LQ].Anrif.mkv
Формат : Matroska
Версия формата : Version 4
Размер файла : 4,18 Гбайт
Продолжительность : 1 ч. 32 м.
Режим общего битрейта : Постоянный
Общий поток : 6 510 Кбит/сек
Название фильма : Бойся тишины / Sound of Silence (2022)
Дата кодирования : UTC 2023-03-10 16:04:29
Программа кодирования : mkvmerge v8.3.0 ('Over the Horizon') 64bit
Библиотека кодирования : libebml v1.3.1 + libmatroska v1.4.2
Обложка : Yes
Attachments : cover.jpg
Видео
Идентификатор : 1
Формат : AVC
Формат/Информация : Advanced Video Codec
Профиль формата : High@L4.1
Настройки формата : CABAC / 4 Ref Frames
Параметр CABAC формата : Да
Параметр RefFrames формата : 4 кадра
Идентификатор кодека : V_MPEG4/ISO/AVC
Продолжительность : 1 ч. 32 м.
Вид битрейта : Постоянный
Битрейт : 6 315 Кбит/сек
Номинальный битрейт : 7 000 Кбит/сек
Ширина : 1 920 пикселей
Высота : 800 пикселей
Соотношение сторон : 2,40:1
Режим частоты кадров : Постоянный
Частота кадров : 23,976 (24000/1001) кадра/сек
Стандарт вещания : Component
Цветовое пространство : YUV
Субдискретизация насыщенности : 4:2:0
Битовая глубина : 8 бит
Тип развёртки : Прогрессивная
Бит/(Пиксели*Кадры) : 0.171
Размер потока : 4,06 Гбайт (97%)
Заголовок : -=Anrif=-
Библиотека кодирования : x264 core 155
Настройки программы : cabac=1 / ref=4 / deblock=1:0:0 / analyse=0x3:0x3 / me=dia / subme=1 / psy=1 / psy_rd=1.00:0.00 / mixed_ref=0 / me_range=16 / chroma_me=1 / trellis=0 / 8x8dct=1 / cqm=1 / deadzone=21,11 / fast_pskip=1 / chroma_qp_offset=0 / threads=25 / lookahead_threads=4 / sliced_threads=0 / slices=1 / nr=0 / decimate=1 / interlaced=0 / minigop=0 / stitchable=1 / constrained_intra=0 / bframes=0 / weightp=0 / keyint=240 / keyint_min=23 / scenecut=0 / intra_refresh=0 / rc_lookahead=0 / rc=cbr / mbtree=0 / bitrate=7000 / ratetol=1.0 / qcomp=0.60 / qpmin=1 / qpmax=69 / qpstep=4 / vbv_maxrate=7000 / vbv_bufsize=7000 / nal_hrd=cbr / filler=1 / ip_ratio=1.40 / aq=1:1.00
Язык : Italian
Default : Да
Forced : Да
Цветовой диапазон : Limited
Основные цвета : BT.709
Характеристики трансфера : BT.709
Коэффициенты матрицы : BT.709
Аудио
Идентификатор : 2
Формат : AC-3
Формат/Информация : Audio Coding 3
Коммерческое название : Dolby Digital
Идентификатор кодека : A_AC3
Продолжительность : 1 ч. 32 м.
Вид битрейта : Постоянный
Битрейт : 192 Кбит/сек
Каналы : 2 канала
Channel layout : L R
Частота : 48,0 КГц
Частота кадров : 31,250 кадров/сек (1536 SPF)
Метод сжатия : С потерями
Размер потока : 126 Мбайт (3%)
Заголовок : DUB [Line]
Язык : Russian
Service kind : Complete Main
Default : Да
Forced : Да
Скриншоты: Все одноименные релизы в Клубе Время раздачи: до появления первых 3-5 скачавших
[Профиль] [ЛС]
Показать сообщения:    
Ответить на тему

Текущее время: 29-Фев 11:30

Часовой пояс: UTC ± 0



Вы не можете начинать темы
Вы не можете отвечать на сообщения
Вы не можете редактировать свои сообщения
Вы не можете удалять свои сообщения
Вы не можете голосовать в опросах
Вы не можете прикреплять файлы к сообщениям
Вы не можете скачивать файлы

[  Время выполнения: 0,041 сек  |  MySQL: 0,005 сек (12%) · 5 запр.  |  GZIP выкл  |  Память: 422,29 KB / 1,74 MB / 1,36 MB  |  Лимит: 9 10 11  ]