Лютер: Павшее солнце / Luther / Luther: The Fallen Sun (2023) WEB-DLRip [H.264/1080p-LQ] [MVO, AD]

Ответить на тему
 
Автор Сообщение

admin ®

Пол: Не указан

Стаж: 5 месяца 1 день

Сообщений: 10110

Создавать темы 30-Янв-2024 15:58

[Цитировать]

Лютер: Павшее солнце / Luther: The Fallen Sun (2023) WEB-DLRip [H.264/1080p-LQ] - Производство: Великобритания, США / BBC Studios, BBC Films, Chernin Entertainment
Жанр: триллер, драма, криминал, детектив
Режиссер: Джэми Пэйн
Продюсер: Питер Чернин, Нил Кросс, Идрис Эльба
Актеры: Идрис Эльба, Синтия Эриво, Энди Серкис, Дермот Краули, Томас Кумбз, Хэтти Морахэн, Лорин Аджуфо, Винсент Риган, Росс Уэйтон, Ли Дань
Описание:
Детектив Джон Лютер сбегает из тюрьмы, чтобы выследить серийного убийцу, терроризирующего Лондон.
Рейтинг MPAA: R (лицам до 17 лет обязательно присутствие взрослого)
Дата мировой премьеры: 24 февраля 2023
Релиз от: Anrif
Продолжительность: 02:10:02
Качество видео: WEB-DLRip Netflix (1080p)
Перевод: Любительский многоголосый (MuzoBoz)
Язык озвучки: Русский
Субтитры: Отсутствуют
Реклама: Присутствует баннер!
Видео: AVC/H.264, 1920x800, ~9129 kbps
Аудио: AС-3, 2 ch, 192 kbps

MediaInfo:

Общее
Уникальный идентификатор : 225202860630661282779580195626012017209 (0xA96C7E47ED6C852EA9ED3ED54B3A8239)
Полное имя : F:\Luther_The.Fallen.Sun.(2023).MVO.WEB-DLRip.[1080p-LQ].Anrif.mkv
Формат : Matroska
Версия формата : Version 4
Размер файла : 8,47 Гбайт
Продолжительность : 2 ч. 10 м.
Режим общего битрейта : Постоянный
Общий поток : 9 323 Кбит/сек
Название фильма : Лютер: Павшее солнце / Luther: The Fallen Sun (2023)
Дата кодирования : UTC 2023-03-10 18:48:19
Программа кодирования : mkvmerge v8.3.0 ('Over the Horizon') 64bit
Библиотека кодирования : libebml v1.3.1 + libmatroska v1.4.2
Обложка : Yes
Attachments : cover.jpg
Видео
Идентификатор : 1
Формат : AVC
Формат/Информация : Advanced Video Codec
Профиль формата : High@L4.1
Настройки формата : CABAC / 4 Ref Frames
Параметр CABAC формата : Да
Параметр RefFrames формата : 4 кадра
Идентификатор кодека : V_MPEG4/ISO/AVC
Продолжительность : 2 ч. 10 м.
Вид битрейта : Постоянный
Битрейт : 9 129 Кбит/сек
Номинальный битрейт : 10 000 Кбит/сек
Ширина : 1 920 пикселей
Высота : 800 пикселей
Соотношение сторон : 2,40:1
Режим частоты кадров : Постоянный
Частота кадров : 23,976 (24000/1001) кадра/сек
Стандарт вещания : Component
Цветовое пространство : YUV
Субдискретизация насыщенности : 4:2:0
Битовая глубина : 8 бит
Тип развёртки : Прогрессивная
Бит/(Пиксели*Кадры) : 0.248
Размер потока : 8,29 Гбайт (98%)
Заголовок : -=Anrif=-
Библиотека кодирования : x264 core 155
Настройки программы : cabac=1 / ref=4 / deblock=1:0:0 / analyse=0x3:0x3 / me=dia / subme=1 / psy=1 / psy_rd=1.00:0.00 / mixed_ref=0 / me_range=16 / chroma_me=1 / trellis=0 / 8x8dct=1 / cqm=1 / deadzone=21,11 / fast_pskip=1 / chroma_qp_offset=0 / threads=25 / lookahead_threads=4 / sliced_threads=0 / slices=1 / nr=0 / decimate=1 / interlaced=0 / minigop=0 / stitchable=1 / constrained_intra=0 / bframes=0 / weightp=0 / keyint=240 / keyint_min=23 / scenecut=0 / intra_refresh=0 / rc_lookahead=0 / rc=cbr / mbtree=0 / bitrate=10000 / ratetol=1.0 / qcomp=0.60 / qpmin=1 / qpmax=69 / qpstep=4 / vbv_maxrate=10000 / vbv_bufsize=10000 / nal_hrd=cbr / filler=1 / ip_ratio=1.40 / aq=1:1.00
Язык : English
Default : Да
Forced : Да
Цветовой диапазон : Limited
Основные цвета : BT.709
Характеристики трансфера : BT.709
Коэффициенты матрицы : BT.709
Аудио
Идентификатор : 2
Формат : AC-3
Формат/Информация : Audio Coding 3
Коммерческое название : Dolby Digital
Идентификатор кодека : A_AC3
Продолжительность : 2 ч. 10 м.
Вид битрейта : Постоянный
Битрейт : 192 Кбит/сек
Каналы : 2 канала
Channel layout : L R
Частота : 48,0 КГц
Частота кадров : 31,250 кадров/сек (1536 SPF)
Метод сжатия : С потерями
Размер потока : 179 Мбайт (2%)
Заголовок : MVO [MuzoBoz]
Язык : Russian
Service kind : Complete Main
Default : Да
Forced : Да
Скриншоты: Все одноименные релизы в Клубе Время раздачи: до появления первых 3-5 скачавших
[Профиль] [ЛС]
Показать сообщения:    
Ответить на тему

Текущее время: 29-Фев 11:49

Часовой пояс: UTC ± 0



Вы не можете начинать темы
Вы не можете отвечать на сообщения
Вы не можете редактировать свои сообщения
Вы не можете удалять свои сообщения
Вы не можете голосовать в опросах
Вы не можете прикреплять файлы к сообщениям
Вы не можете скачивать файлы

[  Время выполнения: 0,028 сек  |  MySQL: 0,003 сек (11%) · 3 запр.  |  GZIP выкл  |  Память: 422,29 KB / 1,72 MB / 1,34 MB  |  Лимит: 8 9 10  ]