Крид 3 / Creed III (2023) WEB-DLRip [H.264/1080p-LQ] [Line, AD]

Ответить на тему
 
Автор Сообщение

admin ®

Пол: Не указан

Стаж: 6 месяца 19 дня

Сообщений: 11520

Создавать темы 30-Янв-2024 15:58

[Цитировать]

Крид 3 / Creed III (2023) WEB-DLRip [H.264/1080p-LQ]- Производство: США, Chartoff-Winkler Productions, Glickmania, Metro-Goldwyn-Mayer (MGM), Outlier Society Productions, Proximity
Жанр: драма, спорт
Режиссер: Майкл Б. Джордан
Продюсер: Уильям Чартофф, Райан Куглер, Джонатан Гликман
Актеры: Майкл Б. Джордан, Тесса Томпсон, Джонатан Мэйджерс, Вуд Харрис, Филисия Рашад, Майла Дэвис-Кент, Хосе Бенавидез, Селенис Лейва, Флориан Мунтяну, Тадеус Дж. Миксон
Описание:
На свободу после длительного тюремного заключения выходит друг детства Крида и бывший вундеркинд бокса Дэмиан «Дама» Андерсон, который горит желанием доказать, что заслуживает своего шанса на ринге. Чтобы свести счеты, Донни должен поставить на карту свое будущее, ведь Дэмиану нечего терять.
Рейтинг MPAA: PG-13 (детям до 13 лет просмотр нежелателен)
Дата мировой премьеры: 1 марта 2023
Продолжительность: 01:56:31
Качество видео: WEB-DLRip
Перевод: Дублированный (Line)
Субтитры: Отсутствуют
Реклама: Присутствует баннер
Видео: AVC/H.264, 1920x800, 8567 Kbps, 23.976 fps
Аудио: АС3, 2 ch, 48 kHz, 384 Kbps | Русский

MediaInfo:

Общее
Полное имя : D:\Крид.3.2023.WEB-DLRip.[1080p].Soft-Torrent - торрент игры программы фильмы книги скачать.mkv
Формат : Matroska
Версия формата : Version 2
Размер файла : 7,43 Гбайт
Продолжительность : 1 ч. 56 м.
Режим общего битрейта : Постоянный
Общий поток : 9133 Кбит/сек
Программа кодирования : libmatroska 1.4.1
Библиотека кодирования : SolveigMM Matroska Muxer Version 1.0.2010.29
Видео
Идентификатор : 1
Формат : AVC
Формат/Информация : Advanced Video Codec
Профиль формата : High@L4.1
Настройки формата : CABAC / 4 Ref Frames
Параметр CABAC формата : Да
Параметр RefFrames формата : 4 кадра
Идентификатор кодека : V_MPEG4/ISO/AVC
Продолжительность : 1 ч. 56 м.
Вид битрейта : Постоянный
Битрейт : 8567 Кбит/сек
Номинальный битрейт : 9000 Кбит/сек
Ширина : 1920 пикселей
Высота : 800 пикселей
Соотношение сторон : 2,40:1
Режим частоты кадров : Постоянный
Частота кадров : 23,976 (24000/1001) кадра/сек
Стандарт вещания : Component
Цветовое пространство : YUV
Субдискретизация насыщенности : 4:2:0
Битовая глубина : 8 бит
Тип развёртки : Прогрессивная
Бит/(Пиксели*Кадры) : 0.233
Размер потока : 6,97 Гбайт (94%)
Язык : English
Default : Да
Forced : Нет
Цветовой диапазон : Limited
Основные цвета : BT.709
Характеристики трансфера : BT.709
Коэффициенты матрицы : BT.709
Аудио
Идентификатор : 2
Формат : AC-3
Формат/Информация : Audio Coding 3
Коммерческое название : Dolby Digital
Идентификатор кодека : A_AC3
Продолжительность : 1 ч. 56 м.
Вид битрейта : Постоянный
Битрейт : 384 Кбит/сек
Каналы : 2 канала
ChannelLayout : L R
Частота : 48,0 КГц
Частота кадров : 31,250 кадров/сек (1536 SPF)
Битовая глубина : 16 бит
Метод сжатия : С потерями
Размер потока : 320 Мбайт (4%)
Язык : Russian
ServiceKind/String : Complete Main
Default : Да
Forced : Нет
Скриншоты:
Все одноименные релизы в КлубеВремя раздачи: 24/7 (минимум до появления первых 3-5 скачавших)
[Профиль] [ЛС]
Показать сообщения:    
Ответить на тему

Текущее время: 17-Апр 15:44

Часовой пояс: UTC ± 0



Вы не можете начинать темы
Вы не можете отвечать на сообщения
Вы не можете редактировать свои сообщения
Вы не можете удалять свои сообщения
Вы не можете голосовать в опросах
Вы не можете прикреплять файлы к сообщениям
Вы не можете скачивать файлы

[  Время выполнения: 0,040 сек  |  MySQL: 0,003 сек (6%) · 3 запр.  |  GZIP выкл  |  Память: 422,29 KB / 1,74 MB / 1,34 MB  |  Лимит: 13 14 13  ]