Игрушка / Laruan (2022) WEBRip [H.264/720p] [DVO] [AD]

Ответить на тему
 
Автор Сообщение

admin ®

Пол: Не указан

Стаж: 4 месяца 27 дня

Сообщений: 10110

Создавать темы 30-Янв-2024 15:58

[Цитировать]

Игрушка / Laruan (2022) WEBRip [H.264/720p] - Производство: Филиппины / Viva Films
Жанр: драма, эротика
Режиссер: Ям Ларанас
Актеры: Фрэнки Расселл, Хай Манало, Кико Эстрада, Ава Мендес и др.
Описание:
Камилла, жена Рене, всегда приглашает своего другого мужчину, Джеффа, на ужин, чтобы они могли заняться любовью дома. Но когда в кадре появляется новая женщина, Тея, дикая и сумасшедшая игра Камиллы меняется.
Возраст: 18+ (зрителям, достигшим 18 лет. запрещено для детей)
Дата мировой премьеры: 16 декабря 2022
Релиз от: Alexandr
Продолжительность: 01:26:08
Качество видео: WEBRip
Перевод: Двуголосый любительский (Колобок)
Язык озвучки: русский
Субтитры: отсутствуют
Реклама: Присутствует пара вставок голосовой рекламы
Видео: AVC/H.264, 1280x720 (16:9), ~3450 Kbps
Аудио: AC3, 2 ch, 192 Kbps - русский

MediaInfo:

Общее
Уникальный идентификатор : 228485749476252881743630874504960114396 (0xABE4C132974C7B204C0A001C21DB7EDC)
Полное имя : D:\1\Laruan.2022.by.Alexandr.mkv
Формат : Matroska
Версия формата : Version 4
Размер файла : 2,19 Гбайт
Продолжительность : 1 ч. 26 м.
Общий поток : 3 646 Кбит/сек
Частота кадров : 24,000 кадра/сек
Название фильма : Laruan.2022.by.Alexandr
Дата кодирования : 2023-04-11 09:42:03 UTC
Программа кодирования : mkvmerge v26.0.0 ('In The Game') 32-bit
Библиотека кодирования : libebml v1.3.6 + libmatroska v1.4.9 / Lavf58.12.100
Язык : und
Видео
Идентификатор : 1
Формат : AVC
Формат/Информация : Advanced Video Codec
Профиль формата : Main@L3.1
Настройки формата : CABAC / 1 Ref Frames
Параметр CABAC формата : Да
Параметр RefFrames формата : 1 кадр
Параметр GOP формата : M=1, N=25
Идентификатор кодека : V_MPEG4/ISO/AVC
Продолжительность : 1 ч. 26 м.
Битрейт : 3 452 Кбит/сек
Ширина : 1 280 пикселей
Высота : 720 пикселей
Соотношение сторон : 16:9
Режим частоты кадров : Постоянный
Частота кадров : 24,000 кадра/сек
Цветовое пространство : YUV
Субдискретизация насыщенности : 4:2:0
Битовая глубина : 8 бит
Тип развёртки : Прогрессивная
Бит/(Пиксели*Кадры) : 0.156
Размер потока : 2,08 Гбайт (95%)
Default : Да
Forced : Нет
Аудио
Идентификатор : 2
Формат : AC-3
Формат/Информация : Audio Coding 3
Коммерческое название : Dolby Digital
Идентификатор кодека : A_AC3
Продолжительность : 1 ч. 26 м.
Вид битрейта : Постоянный
Битрейт : 192 Кбит/сек
Каналы : 2 канала
Channel layout : L R
Частота : 48,0 КГц
Частота кадров : 31,250 кадров/сек (1536 SPF)
Метод сжатия : С потерями
Задержка видео : -5 мс.
Размер потока : 118 Мбайт (5%)
Service kind : Complete Main
Default : Да
Forced : Нет
Скриншоты:
Все одноименные релизы в КлубеВремя раздачи: 24/7 (круглосуточно) (минимум до появления первых 3-5 скачавших)
[Профиль] [ЛС]
Показать сообщения:    
Ответить на тему

Текущее время: 25-Фев 22:17

Часовой пояс: UTC ± 0



Вы не можете начинать темы
Вы не можете отвечать на сообщения
Вы не можете редактировать свои сообщения
Вы не можете удалять свои сообщения
Вы не можете голосовать в опросах
Вы не можете прикреплять файлы к сообщениям
Вы не можете скачивать файлы

[  Время выполнения: 0,028 сек  |  MySQL: 0,004 сек (13%) · 3 запр.  |  GZIP выкл  |  Память: 422,29 KB / 1,72 MB / 1,32 MB  |  Лимит: 14 14 16  ]