Шоурум / Showroom (2022) WEBRip [H.264/1080p] [MVO, AD]

Ответить на тему
 
Автор Сообщение

admin ®

Пол: Не указан

Стаж: 7 месяца 24 дня

Сообщений: 11520

Создавать темы 30-Янв-2024 15:58

[Цитировать]

Шоурум / Showroom (2022) WEBRip [H.264/1080p] - Производство: Филиппины / 3:16 Media Network, Viva Films
Жанр: драма, эротика
Режиссер: Карло Обиспо
Актеры: Куинн Каррильо, Роб Куинто, Кит Томпсон, Эмилио Гарсиа, Ralmon Mendoza, AZ Carrillo, Массимо Скофилд, Марк Дионисио, Neil Suarez, Andrew Adie
Описание:
Лизель, амбициозный агент, узнает, что ее коллега Сьюзен использует свое тело для продажи квартир в кондоминиумах; поэтому она подражает ее схеме. Когда роли меняются, Лизель начинает сталкиваться со своими наказаниями одно за другим.
Возраст: 18+ (зрителям, достигшим 18 лет. запрещено для детей)
Дата мировой премьеры: 10 ноября 2022
Продолжительность: 01:53:41
Качество видео: WEBRip
Перевод: Многоголосый любительский (Синема УС)
Язык озвучки: русский
Субтитры: отсутствуют
Реклама: Присутствуют текстовые, голосовые, баннер
Видео: AVC/H.264, 1920x1080 (16:9), ~5000 Kbps
Аудио: AAC, 2 ch, 192 Kbps - русский

MediaInfo:

Общее
Уникальный идентификатор : 202156372047654385145665224056897589365 (0x9815E6AA6534840F9CD0F373DBB0D075)
Полное имя : G:\Showroom (2022).mkv
Формат : Matroska
Версия формата : Version 4
Размер файла : 4,12 Гбайт
Продолжительность : 1 ч. 53 м.
Общий поток : 5 193 Кбит/сек
Частота кадров : 24,000 кадра/сек
Дата кодирования : 2023-04-16 14:37:19 UTC
Программа кодирования : mkvmerge v26.0.0 ('In The Game') 32-bit
Библиотека кодирования : libebml v1.3.6 + libmatroska v1.4.9
Видео
Идентификатор : 1
Формат : AVC
Формат/Информация : Advanced Video Codec
Профиль формата : Main@L4
Настройки формата : CABAC / 4 Ref Frames
Параметр CABAC формата : Да
Параметр RefFrames формата : 4 кадра
Идентификатор кодека : V_MPEG4/ISO/AVC
Продолжительность : 1 ч. 53 м.
Битрейт : 5 000 Кбит/сек
Ширина : 1 920 пикселей
Высота : 1 080 пикселей
Соотношение сторон : 16:9
Режим частоты кадров : Постоянный
Частота кадров : 24,000 кадра/сек
Цветовое пространство : YUV
Субдискретизация насыщенности : 4:2:0
Битовая глубина : 8 бит
Тип развёртки : Прогрессивная
Бит/(Пиксели*Кадры) : 0.100
Размер потока : 3,97 Гбайт (96%)
Библиотека кодирования : x264 core 163 r3060 5db6aa6
Настройки программы : cabac=1 / ref=3 / deblock=0:-1:-1 / analyse=0x1:0x111 / me=hex / subme=7 / psy=1 / psy_rd=1.00:0.15 / mixed_ref=1 / me_range=16 / chroma_me=1 / trellis=1 / 8x8dct=0 / cqm=0 / deadzone=21,11 / fast_pskip=1 / chroma_qp_offset=-3 / threads=32 / lookahead_threads=5 / sliced_threads=0 / nr=0 / decimate=1 / interlaced=0 / bluray_compat=0 / constrained_intra=0 / bframes=3 / b_pyramid=2 / b_adapt=1 / b_bias=0 / direct=1 / weightb=1 / open_gop=0 / weightp=2 / keyint=240 / keyint_min=24 / scenecut=40 / intra_refresh=0 / rc_lookahead=40 / rc=2pass / mbtree=1 / bitrate=5000 / ratetol=1.0 / qcomp=0.60 / qpmin=0 / qpmax=69 / qpstep=4 / cplxblur=20.0 / qblur=0.5 / vbv_maxrate=20000 / vbv_bufsize=25000 / nal_hrd=none / filler=0 / ip_ratio=1.40 / aq=1:1.00
Default : Да
Forced : Нет
Цветовой диапазон : Limited
Основные цвета : BT.709
Характеристики трансфера : BT.709
Коэффициенты матрицы : BT.709
Аудио
Идентификатор : 2
Формат : AAC LC
Формат/Информация : Advanced Audio Codec Low Complexity
Идентификатор кодека : A_AAC-2
Продолжительность : 1 ч. 53 м.
Битрейт : 192 Кбит/сек
Каналы : 2 канала
Channel layout : L R
Частота : 48,0 КГц
Частота кадров : 46,875 кадров/сек (1024 SPF)
Метод сжатия : С потерями
Задержка видео : -21 мс.
Размер потока : 157 Мбайт (4%)
Default : Да
Forced : Нет
Скриншоты:
Все одноименные релизы в КлубеВремя раздачи: 24/7 (круглосуточно) (минимум до появления первых 3-5 скачавших)
[Профиль] [ЛС]
Показать сообщения:    
Ответить на тему

Текущее время: 23-Май 06:49

Часовой пояс: UTC ± 0



Вы не можете начинать темы
Вы не можете отвечать на сообщения
Вы не можете редактировать свои сообщения
Вы не можете удалять свои сообщения
Вы не можете голосовать в опросах
Вы не можете прикреплять файлы к сообщениям
Вы не можете скачивать файлы

[  Время выполнения: 0,045 сек  |  MySQL: 0,004 сек (8%) · 3 запр.  |  GZIP выкл  |  Память: 422,49 KB / 1,74 MB / 1,34 MB  |  Лимит: 8 8 8  ]