Война миров: Вторжение / War of the Worlds: The Attack (2023) WEB-DLRip [H.264/1080p-LQ] [MVO, AD]

Ответить на тему
 
Автор Сообщение

admin ®

Пол: Не указан

Стаж: 6 месяца 22 дня

Сообщений: 11520

Создавать темы 30-Янв-2024 15:57

[Цитировать]

Война миров: Вторжение / War of the Worlds: The Attack (2023) WEB-DLRip - Производство: Великобритания / Doorbell Productions, Lola's Productions, Seeon
Жанр: ужасы, фантастика, триллер
Режиссер: Джунаид Сайед
Актеры: Сэм Гиттинс, Винсент Риган, Лара Лемон, Альхаджи Фофана, Лео Стаар, Кэти ДеКауто, Стефан Боэм, Крис Саддлер, Рози Стил, Фреди «Круга» Нвака
Описание:
Трое студентов-астрономов Герберт, Огилви и Ханна отправляются на поиски метеорита, упавшего где-то в британской глуши. Вскоре они выясняют, что гость из космоса — это не метеорит, а корабль пришельцев и предвестник инопланетного вторжения. Друзья оказываются в эпицентре военных действий, где с одной стороны — земные войска, а с другой — смертоносные боевые машины марсиан.
Возраст: 12+ (зрителям, достигшим 12 лет)
Дата российской премьеры: 27 апреля 2023, «Вольга»
Продолжительность: 01:27:08
Качество видео: WEB-DLRip
Перевод: Многоголосый любительский (Синема УС)
Язык озвучки: русский
Субтитры: отсутствуют
Реклама: Присутствует баннер, вставки аудио рекламы
Видео: AVC/H.264, 1920x814, ~7303 Kbps
Аудио: AC3, 2 ch, 192 Kbps - русский

MediaInfo:

Общее
Уникальный идентификатор : 173829036502215109279913457220099532746 (0x82C641316BDCE6BDADACB0AFE0A867CA)
Полное имя : War of the Worlds.The Attack.(2023).WEB-DLRip.1080p.mkv
Формат : Matroska
Версия формата : Version 4
Размер файла : 4,56 Гбайт
Продолжительность : 1 ч. 27 м.
Режим общего битрейта : Постоянный
Общий поток : 7 497 Кбит/сек
Дата кодирования : UTC 2023-04-23 18:49:14
Программа кодирования : mkvmerge v8.3.0 ('Over the Horizon') 64bit
Библиотека кодирования : libebml v1.3.1 + libmatroska v1.4.2
Видео
Идентификатор : 1
Формат : AVC
Формат/Информация : Advanced Video Codec
Профиль формата : High@L4.1
Настройки формата : CABAC / 4 Ref Frames
Параметр CABAC формата : Да
Параметр RefFrames формата : 4 кадра
Идентификатор кодека : V_MPEG4/ISO/AVC
Продолжительность : 1 ч. 27 м.
Вид битрейта : Постоянный
Битрейт : 7 303 Кбит/сек
Номинальный битрейт : 8 000 Кбит/сек
Ширина : 1 920 пикселей
Высота : 814 пикселей
Соотношение сторон : 2,35:1
Режим частоты кадров : Постоянный
Частота кадров : 23,976 (24000/1001) кадра/сек
Стандарт вещания : Component
Цветовое пространство : YUV
Субдискретизация насыщенности : 4:2:0
Битовая глубина : 8 бит
Тип развёртки : Прогрессивная
Бит/(Пиксели*Кадры) : 0.195
Размер потока : 4,45 Гбайт (97%)
Библиотека кодирования : x264 core 155
Настройки программы : cabac=1 / ref=4 / deblock=1:0:0 / analyse=0x3:0x3 / me=dia / subme=1 / psy=1 / psy_rd=1.00:0.00 / mixed_ref=0 / me_range=16 / chroma_me=1 / trellis=0 / 8x8dct=1 / cqm=1 / deadzone=21,11 / fast_pskip=1 / chroma_qp_offset=0 / threads=25 / lookahead_threads=4 / sliced_threads=0 / slices=1 / nr=0 / decimate=1 / interlaced=0 / minigop=0 / stitchable=1 / constrained_intra=0 / bframes=0 / weightp=0 / keyint=240 / keyint_min=23 / scenecut=0 / intra_refresh=0 / rc_lookahead=0 / rc=cbr / mbtree=0 / bitrate=8000 / ratetol=1.0 / qcomp=0.60 / qpmin=1 / qpmax=69 / qpstep=4 / vbv_maxrate=8000 / vbv_bufsize=8000 / nal_hrd=cbr / filler=1 / ip_ratio=1.40 / aq=1:1.00
Default : Да
Forced : Нет
Цветовой диапазон : Limited
Основные цвета : BT.709
Характеристики трансфера : BT.709
Коэффициенты матрицы : BT.709
Аудио
Идентификатор : 2
Формат : AC-3
Формат/Информация : Audio Coding 3
Коммерческое название : Dolby Digital
Идентификатор кодека : A_AC3
Продолжительность : 1 ч. 27 м.
Вид битрейта : Постоянный
Битрейт : 192 Кбит/сек
Каналы : 2 канала
Channel layout : L R
Частота : 48,0 КГц
Частота кадров : 31,250 кадров/сек (1536 SPF)
Метод сжатия : С потерями
Размер потока : 120 Мбайт (3%)
Язык : Russian
Service kind : Complete Main
Default : Да
Forced : Нет
Скриншоты:
Все одноименные релизы в КлубеВремя раздачи: 24/7 (мультитрекерная раздача)
[Профиль] [ЛС]
Показать сообщения:    
Ответить на тему

Текущее время: 20-Апр 20:54

Часовой пояс: UTC ± 0



Вы не можете начинать темы
Вы не можете отвечать на сообщения
Вы не можете редактировать свои сообщения
Вы не можете удалять свои сообщения
Вы не можете голосовать в опросах
Вы не можете прикреплять файлы к сообщениям
Вы не можете скачивать файлы

[  Время выполнения: 0,036 сек  |  MySQL: 0,003 сек (7%) · 3 запр.  |  GZIP выкл  |  Память: 422,29 KB / 1,74 MB / 1,34 MB  |  Лимит: 5 6 6  ]