Бессмертный / Sisu (2022) WEB-DLRip [H.264/1080p] [MVO, AD]

Ответить на тему
 
Автор Сообщение

admin ®

Пол: Не указан

Стаж: 7 месяца 24 дня

Сообщений: 11520

Создавать темы 30-Янв-2024 15:57

[Цитировать]

Бессмертный / Sisu (2022) WEB-DLRip [H.264/1080p] - Производство: Финляндия, Великобритания / Good Chaos, Stage 6 Films, Subzero Film Entertainment
Жанр: военный, боевик, история
Режиссер: Ялмари Хеландер
Продюсер: Петри Йокиранта, Майк Гудридж, Грегори Уанон
Актеры: Йорма Томмила, Аксель Хенни, Джек Дулан, Мимоса Вилламо, Онни Томмила, Тату Синисало, Вильгельм Энкель, Винсент Виллестранд, Артту Капулайнен, Elina Saarela
Описание:
Финляндия, 1944 год. Немцы отступают, оставляя за собой выжженную землю. Бывший финский солдат находит в Лапландии золотую жилу, но по пути домой сталкивается с отрядом нацистов.
Рейтинг MPAA: R (лицам до 17 лет обязательно присутствие взрослого)
Продолжительность: 01:31:20
Качество видео: WEB-DLRip
Перевод: Многоголосый любительский (Alphaproject)
Язык озвучки: Русский
Субтитры: Отсутствуют
Реклама: Присутствует баннер, звуковая реклама
Видео: АVC/H.264, 1920x800, 10 Mbps
Аудио: АС3, 2 ch, 192 Kbps - русский

MediaInfo:

General
Unique ID : 176688986440046679205204029138856111624 (0x84ED0F9C922369AAA136AA966CCCEE08)
Complete name : Sisu.(2023).WEB-DLRip.1080p.mkv
Format : Matroska
Format version : Version 4
File size : 6.46 GiB
Duration : 1 h 31 min
Overall bit rate mode : Constant
Overall bit rate : 10.1 Mb/s
Encoded date : UTC 2023-05-18 10:11:29
Writing application : mkvmerge v8.3.0 ('Over the Horizon') 64bit
Writing library : libebml v1.3.1 + libmatroska v1.4.2
Video
ID : 1
Format : AVC
Format/Info : Advanced Video Codec
Format profile : High@L4.1
Format settings : CABAC / 4 Ref Frames
Format settings, CABAC : Yes
Format settings, Reference frames : 4 frames
Codec ID : V_MPEG4/ISO/AVC
Duration : 1 h 31 min
Bit rate mode : Constant
Bit rate : 10 000 kb/s
Width : 1 920 pixels
Height : 800 pixels
Display aspect ratio : 2.40:1
Frame rate mode : Constant
Frame rate : 23.976 (24000/1001) FPS
Standard : Component
Color space : YUV
Chroma subsampling : 4:2:0
Bit depth : 8 bits
Scan type : Progressive
Bits/(Pixel*Frame) : 0.272
Stream size : 6.34 GiB (98%)
Default : Yes
Forced : No
Color range : Limited
Color primaries : BT.709
Transfer characteristics : BT.709
Matrix coefficients : BT.709
Audio
ID : 2
Format : AC-3
Format/Info : Audio Coding 3
Commercial name : Dolby Digital
Codec ID : A_AC3
Duration : 1 h 31 min
Bit rate mode : Constant
Bit rate : 192 kb/s
Channel(s) : 2 channels
Channel layout : L R
Sampling rate : 48.0 kHz
Frame rate : 31.250 FPS (1536 SPF)
Compression mode : Lossy
Stream size : 125 MiB (2%)
Title : MVO (Alphaproject)
Language : Russian
Service kind : Complete Main
Default : Yes
Forced : No
Скриншоты:
Все одноименные релизы в КлубеВремя раздачи: с 13 до 23 (до появления первых 3 скачавших)
[Профиль] [ЛС]
Показать сообщения:    
Ответить на тему

Текущее время: 23-Май 05:19

Часовой пояс: UTC ± 0



Вы не можете начинать темы
Вы не можете отвечать на сообщения
Вы не можете редактировать свои сообщения
Вы не можете удалять свои сообщения
Вы не можете голосовать в опросах
Вы не можете прикреплять файлы к сообщениям
Вы не можете скачивать файлы

[  Время выполнения: 0,031 сек  |  MySQL: 0,004 сек (12%) · 3 запр.  |  GZIP выкл  |  Память: 422,49 KB / 1,72 MB / 1,32 MB  |  Лимит: 13 16 18  ]