Не беспокойся, дорогая / Don't Worry, Darling (2022) WEB-DLRip [H.264/1080p-LQ] [MVO, AD]

Ответить на тему
 
Автор Сообщение

admin ®

Пол: Не указан

Стаж: 7 месяца 24 дня

Сообщений: 11520

Создавать темы 30-Янв-2024 15:57

[Цитировать]

Не беспокойся, дорогая / Don't Worry, Darling (2022) WEB-DLRip [H.264/1080p-LQ] «welcome to victory»- Производство: США / Warner Bros., New Line Cinema, Vertigo Entertainment, New Line Productions
Жанр: драма, триллер, фантастика
Режиссер: Оливия Уайлд
Продюсер: Ричард Бренер, Кэтрин Хардвик, Селия Конг
Актеры: Флоренс Пью, Гарри Стайлс, Крис Пайн, Оливия Уайлд, Кики Лэйн, Джемма Чан, Ник Кролл, Сидни Чендлер, Кейт Берлант, Азиф Али
Описание:
1950-е. Джек и Элис живут в идеальном корпоративном городке, состоящем сплошь из дизайнерских домов. Пока мужчины работают над секретным проектом «Победа», их жёны занимаются хозяйством, балетом и шопингом — делают всё, чтобы угодить мужьям. Однако со временем Элис начинает подозревать, что компания, в которой трудится Джек, скрывает ужасные тайны.
Рейтинг MPAA: R (лицам до 17 лет обязательно присутствие взрослого)
Дата мировой премьеры: 5 сентября 2022
Релиз от: Anrif
Продолжительность: 02:01:49
Качество видео: WEB-DLRip (1080p)
Перевод: Многоголосый любительский (AlphaProject)
Язык озвучки: Русский
Субтитры: Отсутствуют
Реклама: Присутствует баннер!
Видео: AVC/H.264, 1918x802, ~9723 kbps
Аудио: AС-3, 2 ch, 192 kbps

MediaInfo:

Общее
Уникальный идентификатор : 218689229549387789010184070270556384900 (0xA486037959C4458C8D10C2B86A412E84)
Полное имя : F:\[Anf].Dont.Worry.Darling.(2022).WEB-DLRip.[1O8Op-LQ].mkv
Формат : Matroska
Версия формата : Version 4
Размер файла : 8,44 Гбайт
Продолжительность : 2 ч. 1 м.
Режим общего битрейта : Постоянный
Общий поток : 9 917 Кбит/сек
Название фильма : Не беспокойся, дорогая / Don't Worry, Darling (2022)
Дата кодирования : UTC 2022-10-27 12:49:52
Программа кодирования : mkvmerge v8.3.0 ('Over the Horizon') 64bit
Библиотека кодирования : libebml v1.3.1 + libmatroska v1.4.2
Обложка : Yes
Attachments : cover.jpg
Видео
Идентификатор : 1
Формат : AVC
Формат/Информация : Advanced Video Codec
Профиль формата : High@L4.1
Настройки формата : CABAC / 4 Ref Frames
Параметр CABAC формата : Да
Параметр RefFrames формата : 4 кадра
Идентификатор кодека : V_MPEG4/ISO/AVC
Продолжительность : 2 ч. 1 м.
Вид битрейта : Постоянный
Битрейт : 9 723 Кбит/сек
Номинальный битрейт : 11,0 Мбит/сек
Ширина : 1 918 пикселей
Высота : 802 пикселя
Соотношение сторон : 2,40:1
Режим частоты кадров : Постоянный
Частота кадров : 23,976 (24000/1001) кадра/сек
Стандарт вещания : Component
Цветовое пространство : YUV
Субдискретизация насыщенности : 4:2:0
Битовая глубина : 8 бит
Тип развёртки : Прогрессивная
Бит/(Пиксели*Кадры) : 0.264
Размер потока : 8,27 Гбайт (98%)
Заголовок : -=Anrif=-
Библиотека кодирования : x264 core 155
Настройки программы : cabac=1 / ref=4 / deblock=1:0:0 / analyse=0x3:0x3 / me=dia / subme=1 / psy=1 / psy_rd=1.00:0.00 / mixed_ref=0 / me_range=16 / chroma_me=1 / trellis=0 / 8x8dct=1 / cqm=1 / deadzone=21,11 / fast_pskip=1 / chroma_qp_offset=0 / threads=25 / lookahead_threads=4 / sliced_threads=0 / slices=1 / nr=0 / decimate=1 / interlaced=0 / minigop=0 / stitchable=1 / constrained_intra=0 / bframes=2 / b_pyramid=0 / b_adapt=0 / b_bias=0 / direct=1 / weightb=1 / open_gop=1 / weightp=0 / keyint=240 / keyint_min=23 / scenecut=0 / intra_refresh=0 / rc_lookahead=0 / rc=cbr / mbtree=0 / bitrate=11000 / ratetol=1.0 / qcomp=0.60 / qpmin=1 / qpmax=69 / qpstep=4 / vbv_maxrate=11000 / vbv_bufsize=11000 / nal_hrd=cbr / filler=1 / ip_ratio=1.40 / pb_ratio=1.30 / aq=1:1.00
Язык : English
Default : Да
Forced : Да
Цветовой диапазон : Limited
Основные цвета : BT.709
Характеристики трансфера : BT.709
Коэффициенты матрицы : BT.709
Аудио
Идентификатор : 2
Формат : AC-3
Формат/Информация : Audio Coding 3
Коммерческое название : Dolby Digital
Идентификатор кодека : A_AC3
Продолжительность : 2 ч. 1 м.
Вид битрейта : Постоянный
Битрейт : 192 Кбит/сек
Каналы : 2 канала
Channel layout : L R
Частота : 48,0 КГц
Частота кадров : 31,250 кадров/сек (1536 SPF)
Метод сжатия : С потерями
Размер потока : 167 Мбайт (2%)
Заголовок : MVO [AlphaProject]
Язык : Russian
Service kind : Complete Main
Default : Да
Forced : Да
Скриншоты: Все одноименные релизы в Клубе Время раздачи: с 18:00 до 24:00 (до первых 3-5 скачавших)
[Профиль] [ЛС]
Показать сообщения:    
Ответить на тему

Текущее время: 23-Май 06:10

Часовой пояс: UTC ± 0



Вы не можете начинать темы
Вы не можете отвечать на сообщения
Вы не можете редактировать свои сообщения
Вы не можете удалять свои сообщения
Вы не можете голосовать в опросах
Вы не можете прикреплять файлы к сообщениям
Вы не можете скачивать файлы

[  Время выполнения: 0,041 сек  |  MySQL: 0,005 сек (11%) · 5 запр.  |  GZIP выкл  |  Память: 422,49 KB / 1,74 MB / 1,36 MB  |  Лимит: 8 10 13  ]