Призрачный патруль 2: Восстание проклятых / R.I.P.D. 2: Rise of the Damned (2022) BDRip [H.264/1080p-LQ] [MVO, AD]

Ответить на тему
 
Автор Сообщение

admin ®

Пол: Не указан

Стаж: 5 месяца

Сообщений: 10110

Создавать темы 30-Янв-2024 15:56

[Цитировать]

Призрачный патруль 2: Восстание проклятых / R.I.P.D. 2: Rise of the Damned (2022) BDRip [H.264/1080p-LQ] - Производство: США / Hero Squared, Universal 1440 Entertainment
Жанр: боевик, комедия, фэнтези
Режиссер: Пол Лейден
Продюсер: Огден Гавански, Джонатан Халперин, Дэниэл Кресмери и др.
Актеры: Джеффри Донован, Пенелопа Митчелл, Ричард Брэйк, Керри Кнуппе, Ричард Флишман, Tilly Keeper, Джейк Чои, Стефани Леви-Джон, Николас Уиттман, Rachel Adedeji
Описание:
События берут своё начало на Диком Западе 1876 года. Шериф Рой Пульсифер был убит в результате перестрелки с знаменитой бандой, но в итоге ему был дарован второй шанс отправиться на землю после того, как он попал на службу в Призрачный Патруль. Но вот только с местью за свою смерть ему придется подождать, так как для начала ему нужно будет попытаться спасти весь мир от нечисти, которая может попасть на землю из открывшихся врат ада в одной из шахт Ред Крика.
Рейтинг MPAA: PG-13 (детям до 13 лет просмотр нежелателен)
Дата мировой премьеры: 15 ноября 2022
Релиз от: Kuzmich
Продолжительность: 01:43:39
Качество видео: BDRip 1080p
Перевод: Многоголосый любительский (MUZOBOZ)
Язык озвучки: Русский
Субтитры: Отсутствуют
Реклама: Присутствует баннер, вставки аудио и видео рекламы
Видео: AVC/H.264, 1920x960, ~11.3 Mbps
Аудио: AAC, 2 ch, 576 Kbps

MediaInfo:

General
Unique ID : 187136454979764937893336059633827016478 (0x8CC92B94672C0C2A868DBFE4CD0F6F1E)
Complete name : E:\morb\R.I.P.D.2.Rise.of.the.Damned.2022.P.BDRip.1080p.Soft-Torrent - торрент игры программы фильмы книги скачать.mkv
Format : Matroska
Format version : Version 2
File size : 8.59 GiB
Duration : 1 h 43 min
Overall bit rate : 11.9 Mb/s
Encoded date : UTC 2022-11-04 19:23:20
Writing application : mkvmerge v8.3.0 ('Over the Horizon') 64bit
Writing library : libebml v1.3.1 + libmatroska v1.4.2
Video
ID : 1
Format : AVC
Format/Info : Advanced Video Codec
Format profile : High@L4.1
Format settings : CABAC / 4 Ref Frames
Format settings, CABAC : Yes
Format settings, Reference frames : 4 frames
Codec ID : V_MPEG4/ISO/AVC
Duration : 1 h 43 min
Bit rate mode : Constant
Bit rate : 11.3 Mb/s
Nominal bit rate : 12.0 Mb/s
Width : 1 920 pixels
Height : 960 pixels
Display aspect ratio : 2.000
Frame rate mode : Constant
Frame rate : 23.976 (24000/1001) FPS
Standard : Component
Color space : YUV
Chroma subsampling : 4:2:0
Bit depth : 8 bits
Scan type : Progressive
Bits/(Pixel*Frame) : 0.256
Stream size : 8.18 GiB (95%)
Writing library : x264 core 155
Encoding settings : cabac=1 / ref=4 / deblock=1:0:0 / analyse=0x3:0x3 / me=dia / subme=1 / psy=1 / psy_rd=1.00:0.00 / mixed_ref=0 / me_range=16 / chroma_me=1 / trellis=0 / 8x8dct=1 / cqm=1 / deadzone=21,11 / fast_pskip=1 / chroma_qp_offset=0 / threads=30 / lookahead_threads=5 / sliced_threads=0 / slices=1 / nr=0 / decimate=1 / interlaced=0 / minigop=0 / stitchable=1 / constrained_intra=0 / bframes=0 / weightp=0 / keyint=240 / keyint_min=23 / scenecut=0 / intra_refresh=0 / rc_lookahead=0 / rc=cbr / mbtree=0 / bitrate=12000 / ratetol=1.0 / qcomp=0.60 / qpmin=1 / qpmax=69 / qpstep=4 / vbv_maxrate=12000 / vbv_bufsize=12000 / nal_hrd=cbr / filler=1 / ip_ratio=1.40 / aq=1:1.00
Default : Yes
Forced : No
Color range : Limited
Color primaries : BT.709
Transfer characteristics : BT.709
Matrix coefficients : BT.709
Audio
ID : 2
Format : AAC Main
Format/Info : Advanced Audio Codec
Codec ID : A_AAC-1
Duration : 1 h 43 min
Bit rate : 576 kb/s
Channel(s) : 2 channels
Channel layout : L R
Sampling rate : 48.0 kHz
Frame rate : 46.875 FPS (1024 SPF)
Compression mode : Lossy
Stream size : 425 MiB (5%)
Default : Yes
Forced : No
Скриншоты:
Все одноименные релизы в КлубеВремя раздачи: 24/7 (минимум до появления первых 3-5 скачавших)
[Профиль] [ЛС]
Показать сообщения:    
Ответить на тему

Текущее время: 28-Фев 23:36

Часовой пояс: UTC ± 0



Вы не можете начинать темы
Вы не можете отвечать на сообщения
Вы не можете редактировать свои сообщения
Вы не можете удалять свои сообщения
Вы не можете голосовать в опросах
Вы не можете прикреплять файлы к сообщениям
Вы не можете скачивать файлы

[  Время выполнения: 0,036 сек  |  MySQL: 0,003 сек (9%) · 3 запр.  |  GZIP выкл  |  Память: 422,29 KB / 1,74 MB / 1,34 MB  |  Лимит: 7 9 9  ]