Минута, когда ты проснешься мертвым / The Minute You Wake up Dead (2022) WEB-DLRip [H.264/1080p-LQ] [MVO, AD]

Ответить на тему
 
Автор Сообщение

admin ®

Пол: Не указан

Стаж: 4 месяца 23 дня

Сообщений: 10110

Создавать темы 30-Янв-2024 15:56

[Цитировать]

Минута, когда ты проснешься мертвым / The Minute You Wake up Dead (2022) WEB-DLRip [H.264/1080p-LQ] - Производство: США / Andrew Stevens Entertainment, Milestone Studios, Eyevox Entertainment
Жанр: триллер
Режиссер: Майкл Мэйлер
Продюсер: Эндрю Стивенс, Бэрри Брукер, Алан Б. Берстин
Актеры: Коул Хаузер, Джейми Александер, Морган Фриман, Эндрю Стивенс, Даррен Манн, Тони ДеМилл, Бен ВандерМей, Кеннет Фармер, John Dylan Atkins, Ronnie Yelverton
Описание:
Биржевой маклер из небольшого южного городка, который вместе с соседом оказывается вовлеченным в аферу со страховкой, что приводит к многочисленным убийствам.
Рейтинг MPAA: R (лицам до 17 лет обязательно присутствие взрослого)
Дата мировой премьеры: 4 ноября 2022
Релиз от: Anrif
Продолжительность: 01:29:17
Качество видео: WEB-DLRip (1080p)
Перевод: Многоголосый любительский (MuzoBoz)
Язык озвучки: Русский
Субтитры: Отсутствуют
Реклама: Присутствует баннер!
Видео: AVC/H.264, 1920х800, ~8106 kbps
Аудио: AС-3, 2 ch, 192 kbps

MediaInfo:

Общее
Уникальный идентификатор : 199544323785149053322398279536136113284 (0x961ED6BE492F48AABAD68B61409B4C84)
Полное имя : F:\[Anf].The.Minute.You.Wake.Up.Dead.(2022).WEB-DLRip.[1O8Op-LQ] .mkv
Формат : Matroska
Версия формата : Version 4
Размер файла : 5,18 Гбайт
Продолжительность : 1 ч. 29 м.
Режим общего битрейта : Постоянный
Общий поток : 8 300 Кбит/сек
Название фильма : Система / The System (2022)
Дата кодирования : UTC 2022-11-06 02:54:32
Программа кодирования : mkvmerge v8.3.0 ('Over the Horizon') 64bit
Библиотека кодирования : libebml v1.3.1 + libmatroska v1.4.2
Обложка : Yes
Attachments : cover.jpg
Видео
Идентификатор : 1
Формат : AVC
Формат/Информация : Advanced Video Codec
Профиль формата : High@L4.1
Настройки формата : CABAC / 4 Ref Frames
Параметр CABAC формата : Да
Параметр RefFrames формата : 4 кадра
Идентификатор кодека : V_MPEG4/ISO/AVC
Продолжительность : 1 ч. 29 м.
Вид битрейта : Постоянный
Битрейт : 8 106 Кбит/сек
Номинальный битрейт : 9 000 Кбит/сек
Ширина : 1 920 пикселей
Высота : 800 пикселей
Соотношение сторон : 2,40:1
Режим частоты кадров : Постоянный
Частота кадров : 23,976 (24000/1001) кадра/сек
Стандарт вещания : Component
Цветовое пространство : YUV
Субдискретизация насыщенности : 4:2:0
Битовая глубина : 8 бит
Тип развёртки : Прогрессивная
Бит/(Пиксели*Кадры) : 0.220
Размер потока : 5,06 Гбайт (98%)
Заголовок : -=Anrif=-
Библиотека кодирования : x264 core 155
Настройки программы : cabac=1 / ref=4 / deblock=1:0:0 / analyse=0x3:0x3 / me=dia / subme=1 / psy=1 / psy_rd=1.00:0.00 / mixed_ref=0 / me_range=16 / chroma_me=1 / trellis=0 / 8x8dct=1 / cqm=1 / deadzone=21,11 / fast_pskip=1 / chroma_qp_offset=0 / threads=25 / lookahead_threads=4 / sliced_threads=0 / slices=1 / nr=0 / decimate=1 / interlaced=0 / minigop=0 / stitchable=1 / constrained_intra=0 / bframes=0 / weightp=0 / keyint=240 / keyint_min=23 / scenecut=0 / intra_refresh=0 / rc_lookahead=0 / rc=cbr / mbtree=0 / bitrate=9000 / ratetol=1.0 / qcomp=0.60 / qpmin=1 / qpmax=69 / qpstep=4 / vbv_maxrate=9000 / vbv_bufsize=9000 / nal_hrd=cbr / filler=1 / ip_ratio=1.40 / aq=1:1.00
Язык : English
Default : Да
Forced : Да
Цветовой диапазон : Limited
Основные цвета : BT.709
Характеристики трансфера : BT.709
Коэффициенты матрицы : BT.709
Аудио
Идентификатор : 2
Формат : AC-3
Формат/Информация : Audio Coding 3
Коммерческое название : Dolby Digital
Идентификатор кодека : A_AC3
Продолжительность : 1 ч. 29 м.
Вид битрейта : Постоянный
Битрейт : 192 Кбит/сек
Каналы : 2 канала
Channel layout : L R
Частота : 48,0 КГц
Частота кадров : 31,250 кадров/сек (1536 SPF)
Метод сжатия : С потерями
Размер потока : 123 Мбайт (2%)
Заголовок : MVO [MuzoBoz]
Язык : Russian
Service kind : Complete Main
Default : Да
Forced : Да
Скриншоты: Все одноименные релизы в Клубе Время раздачи: с 18:00 до 24:00 (до первых 3-5 скачавших)
[Профиль] [ЛС]
Показать сообщения:    
Ответить на тему

Текущее время: 22-Фев 00:05

Часовой пояс: UTC ± 0



Вы не можете начинать темы
Вы не можете отвечать на сообщения
Вы не можете редактировать свои сообщения
Вы не можете удалять свои сообщения
Вы не можете голосовать в опросах
Вы не можете прикреплять файлы к сообщениям
Вы не можете скачивать файлы

[  Время выполнения: 0,037 сек  |  MySQL: 0,004 сек (10%) · 5 запр.  |  GZIP выкл  |  Память: 421,85 KB / 1,74 MB / 1,36 MB  |  Лимит: 10 9 9  ]