Улыбка / Smile (2022) WEB-DLRip [H.264/1080p-LQ] [MVO, AD]

Ответить на тему
 
Автор Сообщение

admin ®

Пол: Не указан

Стаж: 4 месяца 27 дня

Сообщений: 10110

Создавать темы 30-Янв-2024 15:55

[Цитировать]

Улыбка / Smile (2022) WEB-DLRip [H.264/1080p-LQ]
«Once you see it, it's too late»
- Производство: США / Paramount Players, Temple Hill Entertainment
Жанр: ужасы
Режиссер: Паркер Финн
Продюсер: Марти Бауэн, Вик Годфри, Исаак Клауснер и др.
Актеры: Сози Бэйкон, Кайл Галлнер, Джесси Ашер, Робин Вайгерт, Кэйтлин Стэйси, Кэл Пенн, Роб Морган, Джиллиан Зинсер, Джуди Рейес, Дэвид Сочет
Описание:
Роуз Коттер работает в отделении скорой психиатрической помощи и однажды сталкивается с типичной, казалось бы, пациенткой — студенткой, несколько дней назад ставшей свидетелем самоубийства преподавателя. Девушка в истеричном состоянии утверждает, что находится в здравом уме и подвергается преследованиям некой злобной сущности. А после со страшной улыбкой перерезает себе горло. С этого момента Роуз начинает видеть улыбающуюся самоубийцу в самых неподходящих местах, а её жизнь постепенно разваливается на части.
Возраст: 18+ (зрителям, достигшим 18 лет. запрещено для детей)
Рейтинг MPAA: R (лицам до 17 лет обязательно присутствие взрослого)
Дата мировой премьеры: 22 сентября 2022
Релиз от: Kuzmich
Продолжительность: 01:56:30
Качество видео: WEB-DLRip 1080p
Перевод: Многоголосый любительский (AlphaProject)
Язык озвучки: Русский
Субтитры: Китайские (hardsub)
Реклама: Присутствует баннер, вставки аудио и видео рекламы
Видео: AVC/H.264, 1920x960, ~7587 Kbps
Аудио: AAC, 2 ch, 576 Kbps

MediaInfo:

General
Unique ID : 202473624089538555848389599769078505635 (0x985300661F57F685AE08F5A8229FA0A3)
Complete name : E:\morb\Smile.2022.Pa.WEB-DL.1080p.Soft-Torrent - торрент игры программы фильмы книги скачать.mkv
Format : Matroska
Format version : Version 4
File size : 6.64 GiB
Duration : 1 h 56 min
Overall bit rate : 8 162 kb/s
Movie name : Smile.2022.Pa.WEB-DLRip.1080p
Encoded date : UTC 2022-11-06 17:35:45
Writing application : mkvmerge v70.0.0 ('Caught A Lite Sneeze') 64-bit
Writing library : libebml v1.4.2 + libmatroska v1.6.4
Video
ID : 1
Format : AVC
Format/Info : Advanced Video Codec
Format profile : High@L4.1
Format settings : CABAC / 4 Ref Frames
Format settings, CABAC : Yes
Format settings, Reference frames : 4 frames
Codec ID : V_MPEG4/ISO/AVC
Duration : 1 h 56 min
Bit rate mode : Constant
Bit rate : 7 587 kb/s
Nominal bit rate : 9 000 kb/s
Width : 1 920 pixels
Height : 960 pixels
Display aspect ratio : 2.000
Frame rate mode : Constant
Frame rate : 23.976 (24000/1001) FPS
Standard : Component
Color space : YUV
Chroma subsampling : 4:2:0
Bit depth : 8 bits
Scan type : Progressive
Bits/(Pixel*Frame) : 0.172
Stream size : 6.17 GiB (93%)
Title : Kuzmich
Writing library : x264 core 155
Encoding settings : cabac=1 / ref=4 / deblock=1:0:0 / analyse=0x3:0x3 / me=dia / subme=1 / psy=1 / psy_rd=1.00:0.00 / mixed_ref=0 / me_range=16 / chroma_me=1 / trellis=0 / 8x8dct=1 / cqm=1 / deadzone=21,11 / fast_pskip=1 / chroma_qp_offset=0 / threads=30 / lookahead_threads=5 / sliced_threads=0 / slices=1 / nr=0 / decimate=1 / interlaced=0 / minigop=0 / stitchable=1 / constrained_intra=0 / bframes=2 / b_pyramid=0 / b_adapt=0 / b_bias=0 / direct=1 / weightb=1 / open_gop=1 / weightp=0 / keyint=240 / keyint_min=23 / scenecut=0 / intra_refresh=0 / rc_lookahead=0 / rc=cbr / mbtree=0 / bitrate=9000 / ratetol=1.0 / qcomp=0.60 / qpmin=1 / qpmax=69 / qpstep=4 / vbv_maxrate=9000 / vbv_bufsize=9000 / nal_hrd=cbr / filler=1 / ip_ratio=1.40 / pb_ratio=1.30 / aq=1:1.00
Default : Yes
Forced : No
Color range : Limited
Color primaries : BT.709
Transfer characteristics : BT.709
Matrix coefficients : BT.709
Audio
ID : 2
Format : AAC Main
Format/Info : Advanced Audio Codec
Codec ID : A_AAC-1
Duration : 1 h 56 min
Bit rate : 576 kb/s
Channel(s) : 2 channels
Channel layout : L R
Sampling rate : 48.0 kHz
Frame rate : 46.875 FPS (1024 SPF)
Compression mode : Lossy
Stream size : 478 MiB (7%)
Language : Panjabi
Default : Yes
Forced : No
Скриншоты:
Все одноименные релизы в КлубеВремя раздачи: 24/7 (минимум до появления первых 3-5 скачавших)
[Профиль] [ЛС]
Показать сообщения:    
Ответить на тему

Текущее время: 25-Фев 21:08

Часовой пояс: UTC ± 0



Вы не можете начинать темы
Вы не можете отвечать на сообщения
Вы не можете редактировать свои сообщения
Вы не можете удалять свои сообщения
Вы не можете голосовать в опросах
Вы не можете прикреплять файлы к сообщениям
Вы не можете скачивать файлы

[  Время выполнения: 0,036 сек  |  MySQL: 0,008 сек (23%) · 3 запр.  |  GZIP выкл  |  Память: 422,29 KB / 1,72 MB / 1,32 MB  |  Лимит: 14 13 11  ]