Пэрл / Pearl (2022) WEB-DLRip [H.264/1080p-LQ] [MVO] [AD]

Ответить на тему
 
Автор Сообщение

admin ®

Пол: Не указан

Стаж: 4 месяца 23 дня

Сообщений: 10110

Создавать темы 30-Янв-2024 15:55

[Цитировать]

Пэрл / Pearl (2022) WEB-DLRip [H.264/1080p-LQ] [MVO[AD] - Производство: США, Канада / A24, Bron Creative, Little Lamb
Жанр: ужасы, драма
Режиссер: Тай Уэст
Актеры: Миа Гот, Тэнди Райт, Эмма Дженкинс-Пурро, Алистэр Сьюэлл, Amelia Reid, Gabe McDonnell, Лорен Стюарт, Тодд Риппон, Grace Acheson, Дэвид Коренсвет и др.
Описание:
1918 год. В мире бушует Первая мировая война и пандемия «испанки», а на техасской ферме мается девушка Пэрл. Она мечтает вырваться из этой глухомани и стать танцовщицей, но вместо этого вынуждена подчиняться строгой матери, ухаживать за парализованным отцом и покорно дожидаться мужа с фронта. Когда Пэрл узнаёт, что в ближайшем городке будет проходить прослушивание на вакансию в танцевальной труппе, она решает попасть туда любой ценой.
Дата мировой премьеры: 3 сентября 2022
Возраст: 18+ (зрителям, достигшим 18 лет. запрещено для детей)
Релиз от: ViruseProject
Продолжительность: 01:42:05
Качество видео: WEB-DLRip 1080p
Перевод: Профессиональный (многоголосый, закадровый) (ViruseProject)
Язык озвучки: Русский, английский
Субтитры: Русские, английские
Реклама: Присутствуют видео, аудио вставки рекламы - 2 раза видео-тектовая и 2 раза аудио. Не казино-букмекер!
Видео: AVC/H.264, 1918x800 (2.40:1), ~7501 Kbps
Аудио #1: AC3, 6 ch, 640 Kbps - русский
Аудио #2: AC3, 6 ch, 640 Kbps - английский

MediaInfo:

General
Unique ID : 241771255279294724358829173123876042579 (0xB5E37334BC996FA994DAC8315246B753)
Complete name : Pearl.2022.1080p.WEB-DLRip.ViruseProject.mkv
Format : Matroska
Format version : Version 4
File size : 6.26 GiB
Duration : 1 h 42 min
Overall bit rate : 8 782 kb/s
Encoded date : UTC 2022-11-12 08:32:47
Writing application : mkvmerge v8.3.0 ('Over the Horizon') 64bit
Writing library : libebml v1.3.1 + libmatroska v1.4.2
Video
ID : 1
Format : AVC
Format/Info : Advanced Video Codec
Format profile : High@L4.2
Format settings : CABAC / 4 Ref Frames
Format settings, CABAC : Yes
Format settings, Reference frames : 4 frames
Codec ID : V_MPEG4/ISO/AVC
Duration : 1 h 42 min
Bit rate : 7 501 kb/s
Width : 1 918 pixels
Height : 800 pixels
Display aspect ratio : 2.40:1
Original display aspect ratio : 2.40:1
Frame rate mode : Constant
Frame rate : 23.976 (24000/1001) FPS
Color space : YUV
Chroma subsampling : 4:2:0
Bit depth : 8 bits
Scan type : Progressive
Bits/(Pixel*Frame) : 0.204
Stream size : 5.35 GiB (85%)
Language : English
Default : Yes
Forced : No
Color range : Limited
Color primaries : BT.709
Transfer characteristics : BT.709
Matrix coefficients : BT.709
Audio #1
ID : 2
Format : AC-3
Format/Info : Audio Coding 3
Commercial name : Dolby Digital
Codec ID : A_AC3
Duration : 1 h 42 min
Bit rate mode : Constant
Bit rate : 640 kb/s
Channel(s) : 6 channels
Channel layout : L R C LFE Ls Rs
Sampling rate : 48.0 kHz
Frame rate : 31.250 FPS (1536 SPF)
Compression mode : Lossy
Stream size : 467 MiB (7%)
Title : ViruseProject
Language : Russian
Service kind : Complete Main
Default : Yes
Forced : No
Audio #2
ID : 3
Format : AC-3
Format/Info : Audio Coding 3
Commercial name : Dolby Digital
Codec ID : A_AC3
Duration : 1 h 42 min
Bit rate mode : Constant
Bit rate : 640 kb/s
Channel(s) : 6 channels
Channel layout : L R C LFE Ls Rs
Sampling rate : 48.0 kHz
Frame rate : 31.250 FPS (1536 SPF)
Compression mode : Lossy
Stream size : 467 MiB (7%)
Language : English
Service kind : Complete Main
Default : No
Forced : No
Text #1
ID : 4
Format : UTF-8
Codec ID : S_TEXT/UTF8
Codec ID/Info : UTF-8 Plain Text
Duration : 1 h 41 min
Bit rate : 57 b/s
Count of elements : 907
Stream size : 42.7 KiB (0%)
Language : Russian
Default : No
Forced : No
Text #2
ID : 5
Format : UTF-8
Codec ID : S_TEXT/UTF8
Codec ID/Info : UTF-8 Plain Text
Duration : 1 h 32 min
Bit rate : 38 b/s
Count of elements : 897
Stream size : 25.8 KiB (0%)
Language : English
Default : No
Forced : No
Скриншоты:
Все одноименные релизы в КлубеВремя раздачи: мультитрекерная раздача
[Профиль] [ЛС]
Показать сообщения:    
Ответить на тему

Текущее время: 22-Фев 00:43

Часовой пояс: UTC ± 0



Вы не можете начинать темы
Вы не можете отвечать на сообщения
Вы не можете редактировать свои сообщения
Вы не можете удалять свои сообщения
Вы не можете голосовать в опросах
Вы не можете прикреплять файлы к сообщениям
Вы не можете скачивать файлы

[  Время выполнения: 0,033 сек  |  MySQL: 0,003 сек (9%) · 3 запр.  |  GZIP выкл  |  Память: 421,85 KB / 1,72 MB / 1,34 MB  |  Лимит: 16 16 15  ]