Нечего терять / Breaking (2022) WEB-DLRip [MVO, AD]

Ответить на тему
 
Автор Сообщение

admin ®

Пол: Не указан

Стаж: 7 месяца 24 дня

Сообщений: 11520

Создавать темы 30-Янв-2024 15:53

[Цитировать]

Нечего терять / Breaking (2022) WEB-DLRip - Производство: США / EPIC Magazine, Little Lamb, Salmira Productions, UpperRoom Production
Жанр: триллер, драма, криминал
Режиссер: Эби Дамарис Корбин
Продюсер: Салман Аль-Рашид, Mackenzie Fargo, Сэм Фроман и др.
Актеры: Джон Бойега, Николь Бахари, Селенис Лейва, Майкл Кеннет Уильямс, Конни Бриттон, Джеффри Донован, Лондон Ковингтон, Робб Дерринджер, Кармине Джовинаццо, Кейт Бёртон
Описание:
Ветерану морской пехоты Брайану Брауну-Исли было отказано в поддержке со стороны Департамента по делам ветеранов США. Преисполнившись решимости восстановить справедливость, он решает захватить банк в пригороде Атланты, чтобы привлечь внимание к своей проблеме.
Рейтинг MPAA: PG-13 (детям до 13 лет просмотр нежелателен)
Продолжительность: 01:44:34
Качество видео: WEB-DLRip
Перевод: Многоголосый любительский (AlphaProject)
Язык озвучки: Русский
Субтитры: Отсутствуют
Реклама: Присутствует баннер, вставки аудио и видео рекламы
Видео: Xvid, 720x304, ~1606 Kbps
Аудио: AC3, 2 ch, 256 Kbps

MediaInfo:

General
Complete name : D:\Downloads\morb\Breaking.2022.Pa.WEB-DLRip.Soft-Torrent - торрент игры программы фильмы книги скачать.avi
Format : AVI
Format/Info : Audio Video Interleave
File size : 1.37 GiB
Duration : 1 h 44 min
Overall bit rate : 1 871 kb/s
Writing application : VirtualDubMod 1.5.10.3 | www.virtualdub-fr.org || (build 2550/release)
Writing library : VirtualDubMod build 2550/release
Video
ID : 0
Format : MPEG-4 Visual
Format profile : Advanced Simple@L5
Format settings : BVOP2 / Custom Matrix
Format settings, BVOP : 2
Format settings, QPel : No
Format settings, GMC : No warppoints
Format settings, Matrix : Custom
Codec ID : XVID
Codec ID/Hint : XviD
Duration : 1 h 44 min
Bit rate : 1 606 kb/s
Width : 720 pixels
Height : 304 pixels
Display aspect ratio : 2.35:1
Frame rate : 23.976 (24000/1001) FPS
Color space : YUV
Chroma subsampling : 4:2:0
Bit depth : 8 bits
Scan type : Progressive
Compression mode : Lossy
Bits/(Pixel*Frame) : 0.306
Stream size : 1.17 GiB (86%)
Writing library : XviD 1.2.1 (UTC 2008-12-04)
Audio
ID : 1
Format : AC-3
Format/Info : Audio Coding 3
Commercial name : Dolby Digital
Codec ID : 2000
Duration : 1 h 44 min
Bit rate mode : Constant
Bit rate : 256 kb/s
Channel(s) : 2 channels
Channel layout : L R
Sampling rate : 48.0 kHz
Frame rate : 31.250 FPS (1536 SPF)
Compression mode : Lossy
Stream size : 191 MiB (14%)
Alignment : Split across interleaves
Interleave, duration : 42 ms (1.00 video frame)
Interleave, preload duration : 500 ms
Service kind : Complete Main
Скриншоты:
Все одноименные релизы в КлубеВремя раздачи: 24/7 (минимум до появления первых 3-5 скачавших)
[Профиль] [ЛС]
Показать сообщения:    
Ответить на тему

Текущее время: 23-Май 05:34

Часовой пояс: UTC ± 0



Вы не можете начинать темы
Вы не можете отвечать на сообщения
Вы не можете редактировать свои сообщения
Вы не можете удалять свои сообщения
Вы не можете голосовать в опросах
Вы не можете прикреплять файлы к сообщениям
Вы не можете скачивать файлы

[  Время выполнения: 0,040 сек  |  MySQL: 0,003 сек (6%) · 3 запр.  |  GZIP выкл  |  Память: 422,49 KB / 1,73 MB / 1,33 MB  |  Лимит: 14 13 15  ]