Милая встреча / Meet Cute (2022) WEBRip [H.264/1080p] [MVO, AD]

Ответить на тему
 
Автор Сообщение

admin ®

Пол: Не указан

Стаж: 4 месяца 27 дня

Сообщений: 10110

Создавать темы 30-Янв-2024 15:53

[Цитировать]

Милая встреча / Meet Cute (2022) WEBRip [H.264/1080p]- Производство: США, Orogen Entertainment, Sprockefeller Pictures, Anamorphic Media
Жанр: комедия, мелодрама
Режиссер: Александр Леманн
Актеры: Кейли Куоко, Пит Дэвидсон, Кевин Корригэн, Дебора С. Крэйг, Рок Коли, Хари Неф, Сьерра Фиск, Ребекка Шалл, Пэт Боуи, Josy Soriano
Описание:
Шейла и Гэри влюбляются с первого взгляда. Но есть нюанс: у Шейлы есть машина времени, с помощью которой она постоянно возвращается в свой самый счастливый день. В какой-то момент девушке и этого становится мало — и тогда она перемещается в прошлое Гэри, чтобы превратить его в идеального парня.
Релиз от: BaibaKo
Продолжительность: 01:29:17
Качество видео: WEBRip
Перевод: Многоголосый профессиональный (BaibaKo)
Язык озвучки: Русский
Субтитры: Отсутствуют
Реклама: Присутствуют аудио и видео вставки рекламы.
Видео: AVC/H.264, 1920x1080, ~7256 Kbps
Аудио: AC3, 6 ch, 384 Kbps

MediaInfo:

Общее
Уникальный идентификатор : 201892577753078884192718197088490138322 (0x97E3189A4C958F2511DD9D6463ACAAD2)
Полное имя : \Meet.Cute.HD1080p.WEBRip.Rus.BaibaKo.tv.mkv
Формат : Matroska
Версия формата : Version 4
Размер файла : 4,77 Гбайт
Продолжительность : 1 ч. 29 м.
Общий поток : 7 642 Кбит/сек
Дата кодирования : UTC 2022-09-25 23:32:59
Программа кодирования : mkvmerge v44.0.0 ('Domino') 64-bit
Библиотека кодирования : libebml v1.3.10 + libmatroska v1.5.2
Видео
Идентификатор : 1
Формат : AVC
Формат/Информация : Advanced Video Codec
Профиль формата : High@L4.1
Настройки формата : CABAC / 3 Ref Frames
Параметр CABAC формата : Да
Параметр RefFrames формата : 3 кадра
Параметр GOP формата : M=1, N=30
Идентификатор кодека : V_MPEG4/ISO/AVC
Продолжительность : 1 ч. 29 м.
Битрейт : 7 256 Кбит/сек
Ширина : 1 920 пикселей
Высота : 1 080 пикселей
Соотношение сторон : 16:9
Режим частоты кадров : Постоянный
Частота кадров : 23,976 (24000/1001) кадра/сек
Цветовое пространство : YUV
Субдискретизация насыщенности : 4:2:0
Битовая глубина : 8 бит
Тип развёртки : Прогрессивная
Бит/(Пиксели*Кадры) : 0.146
Размер потока : 4,53 Гбайт (95%)
Язык : English
Default : Да
Forced : Нет
Аудио
Идентификатор : 2
Формат : AC-3
Формат/Информация : Audio Coding 3
Коммерческое название : Dolby Digital
Идентификатор кодека : A_AC3
Продолжительность : 1 ч. 29 м.
Вид битрейта : Постоянный
Битрейт : 384 Кбит/сек
Каналы : 6 каналов
Channel layout : L R C LFE Ls Rs
Частота : 48,0 КГц
Частота кадров : 31,250 кадров/сек (1536 SPF)
Метод сжатия : С потерями
Размер потока : 245 Мбайт (5%)
Язык : Russian
Service kind : Complete Main
Default : Да
Forced : Нет
Скриншоты:
Все одноименные релизы в КлубеВремя раздачи: 24/7 (круглосуточно) (минимум до появления первых 3-5 скачавших)
[Профиль] [ЛС]
Показать сообщения:    
Ответить на тему

Текущее время: 25-Фев 18:12

Часовой пояс: UTC ± 0



Вы не можете начинать темы
Вы не можете отвечать на сообщения
Вы не можете редактировать свои сообщения
Вы не можете удалять свои сообщения
Вы не можете голосовать в опросах
Вы не можете прикреплять файлы к сообщениям
Вы не можете скачивать файлы

[  Время выполнения: 0,037 сек  |  MySQL: 0,003 сек (7%) · 3 запр.  |  GZIP выкл  |  Память: 422,29 KB / 1,74 MB / 1,34 MB  |  Лимит: 14 12 10  ]