Когда начинается крик / When the Screaming Starts (2021) WEB-DLRip [H.264/1080p-LQ] [MVO, AD]

Ответить на тему
 
Автор Сообщение

admin ®

Пол: Не указан

Стаж: 4 месяца 27 дня

Сообщений: 10110

Создавать темы 30-Янв-2024 15:53

[Цитировать]

Когда начинается крик / When the Screaming Starts (2021) WEB-DLRip [H.264/1080p-LQ] - Производство: Великобритания
Жанр: ужасы, комедия
Режиссер: Конор Бору
Продюсер: Конор Бору, Ed Hartland, Джаред Роджерс и др.
Актеры: Кэтрин Беннетт-Фокс, Ясен Атор, Vår Haugholt Ronja Haugholt, Ли Николас Харрис, Джаред Роджерс, Кевин Нику, Kaitlin Reynell, Louise Ann Munro, Steve Hodgetts
Описание:
Журналист-режиссер Норман как-то раз завел знакомство с начинающим серийным убийцей Эйданом. Наивно считая, что это и есть его путь к славе, Норман предпринимает попытки сотрудничества с маньяком. Но при этом Норман совершенно не подозревает, Эйдан, только-только сколотивший вокруг своей персоны леденящий душу культ смерти, превратит его жизнь в форменный кошмар.
Дата мировой премьеры: 27 ноября 2021
Продолжительность: 01:29:52
Качество видео: WEB-DLRip
Перевод: Многоголосый профессиональный (Синема УС)
Язык озвучки: Русский
Субтитры: Отсутствуют
Реклама: Присутствует баннер, вставки аудио и видео рекламы
Видео: AVC/H.264, 1920x960, ~7000 Kbps
Аудио: AC3, 2 ch, 384 Kbps

MediaInfo:

General
Unique ID : 300659740368478455010857487141259430965 (0xE230F5AF35A04564B857DB955C83CC35)
Complete name : D:\Downloads\morb\When.the.Screaming.Starts.2022.P.WEB-DLRip.1080p.Soft-Torrent - торрент игры программы фильмы книги скачать.mkv
Format : Matroska
Format version : Version 4
File size : 4.57 GiB
Duration : 1 h 29 min
Overall bit rate mode : Constant
Overall bit rate : 7 283 kb/s
Encoded date : UTC 2022-09-24 10:54:55
Writing application : mkvmerge v70.0.0 ('Caught A Lite Sneeze') 64-bit
Writing library : libebml v1.4.2 + libmatroska v1.6.4
Video
ID : 1
Format : AVC
Format/Info : Advanced Video Codec
Format profile : High@L4.1
Format settings : CABAC / 4 Ref Frames
Format settings, CABAC : Yes
Format settings, Reference frames : 4 frames
Codec ID : V_MPEG4/ISO/AVC
Duration : 1 h 29 min
Bit rate mode : Constant
Bit rate : 7 000 kb/s
Width : 1 920 pixels
Height : 960 pixels
Display aspect ratio : 2.000
Frame rate mode : Constant
Frame rate : 23.976 (24000/1001) FPS
Standard : Component
Color space : YUV
Chroma subsampling : 4:2:0
Bit depth : 8 bits
Scan type : Progressive
Bits/(Pixel*Frame) : 0.158
Stream size : 4.33 GiB (95%)
Default : Yes
Forced : No
Color range : Limited
Color primaries : BT.709
Transfer characteristics : BT.709
Matrix coefficients : BT.709
Audio
ID : 2
Format : AC-3
Format/Info : Audio Coding 3
Commercial name : Dolby Digital
Codec ID : A_AC3
Duration : 1 h 29 min
Bit rate mode : Constant
Bit rate : 384 kb/s
Channel(s) : 2 channels
Channel layout : L R
Sampling rate : 48.0 kHz
Frame rate : 31.250 FPS (1536 SPF)
Compression mode : Lossy
Stream size : 247 MiB (5%)
Service kind : Complete Main
Default : Yes
Forced : No
Скриншоты:
Все одноименные релизы в КлубеВремя раздачи: 24/7 (минимум до появления первых 3-5 скачавших)
[Профиль] [ЛС]
Показать сообщения:    
Ответить на тему

Текущее время: 25-Фев 18:32

Часовой пояс: UTC ± 0



Вы не можете начинать темы
Вы не можете отвечать на сообщения
Вы не можете редактировать свои сообщения
Вы не можете удалять свои сообщения
Вы не можете голосовать в опросах
Вы не можете прикреплять файлы к сообщениям
Вы не можете скачивать файлы

[  Время выполнения: 0,039 сек  |  MySQL: 0,003 сек (8%) · 3 запр.  |  GZIP выкл  |  Память: 422,29 KB / 1,74 MB / 1,34 MB  |  Лимит: 17 17 15  ]