Отомсти за меня / Do Revenge (2022) WEB-DLRip [H.264/1080p-LQ] [MVO, AD]

Ответить на тему
 
Автор Сообщение

admin ®

Пол: Не указан

Стаж: 4 месяца 23 дня

Сообщений: 10110

Создавать темы 30-Янв-2024 15:53

[Цитировать]

Отомсти за меня / Do Revenge (2022) WEB-DLRip [H.264/1080p-LQ]
«I'll do yours if you do mine»
- Производство: США / Likely Story
Жанр: комедия
Режиссер: Дженн Робинсон
Продюсер: Энтони Брегман, Питер Крон, Дженн Робинсон и др.
Актеры: Майя Хоук, Софи Тёрнер, Камила Мендес, Майя Рефикко, Пэрис Берелс, Остин Абрамс, Кэсседи МакКлинси, Риш Шах, Элиза Беннетт, Алиша Боэ
Описание:
Бывшая королева элитной старшей школы заключает сделку со скромной новенькой, чтобы вместе отомстить своим обидчикам.
Продолжительность: 02:01:52
Качество видео: WEB-DLRip
Перевод: Многоголосый любительский (AlphaProject)
Язык озвучки: Русский
Субтитры: Отсутствуют
Реклама: Присутствует баннер, вставки аудио и видео рекламы
Видео: AVC/H.264, 1920x804, ~9000 Kbps
Аудио: AAC, 2 ch, 576 Kbps

MediaInfo:

General
Unique ID : 249154895882768639564052833326357255597 (0xBB717CCB4D1E6572BAA1D398EB8395AD)
Complete name : D:\Downloads\morb\Do.Revenge.2022.Pa.WEB-DLRip.1080p.Soft-Torrent - торрент игры программы фильмы книги скачать.mkv
Format : Matroska
Format version : Version 2
File size : 7.88 GiB
Duration : 2 h 1 min
Overall bit rate : 9 262 kb/s
Encoded date : UTC 2022-09-16 13:35:20
Writing application : mkvmerge v8.3.0 ('Over the Horizon') 64bit
Writing library : libebml v1.3.1 + libmatroska v1.4.2
Video
ID : 1
Format : AVC
Format/Info : Advanced Video Codec
Format profile : High@L4.1
Format settings : CABAC / 4 Ref Frames
Format settings, CABAC : Yes
Format settings, Reference frames : 4 frames
Codec ID : V_MPEG4/ISO/AVC
Duration : 2 h 1 min
Bit rate mode : Constant
Bit rate : 9 000 kb/s
Width : 1 920 pixels
Height : 804 pixels
Display aspect ratio : 2.40:1
Frame rate mode : Constant
Frame rate : 23.976 (24000/1001) FPS
Standard : Component
Color space : YUV
Chroma subsampling : 4:2:0
Bit depth : 8 bits
Scan type : Progressive
Bits/(Pixel*Frame) : 0.243
Stream size : 7.39 GiB (94%)
Default : Yes
Forced : No
Color range : Limited
Color primaries : BT.709
Transfer characteristics : BT.709
Matrix coefficients : BT.709
Audio
ID : 2
Format : AAC Main
Format/Info : Advanced Audio Codec
Codec ID : A_AAC-1
Duration : 2 h 1 min
Bit rate : 576 kb/s
Channel(s) : 2 channels
Channel layout : L R
Sampling rate : 48.0 kHz
Frame rate : 46.875 FPS (1024 SPF)
Compression mode : Lossy
Stream size : 500 MiB (6%)
Default : Yes
Forced : No
Скриншоты:
Все одноименные релизы в КлубеВремя раздачи: 24/7 (минимум до появления первых 3-5 скачавших)
[Профиль] [ЛС]
Показать сообщения:    
Ответить на тему

Текущее время: 22-Фев 01:27

Часовой пояс: UTC ± 0



Вы не можете начинать темы
Вы не можете отвечать на сообщения
Вы не можете редактировать свои сообщения
Вы не можете удалять свои сообщения
Вы не можете голосовать в опросах
Вы не можете прикреплять файлы к сообщениям
Вы не можете скачивать файлы

[  Время выполнения: 0,037 сек  |  MySQL: 0,005 сек (13%) · 3 запр.  |  GZIP выкл  |  Память: 421,85 KB / 1,71 MB / 1,32 MB  |  Лимит: 19 19 19  ]