Лаал Сингх Чадда / Laal Singh Chaddha (2022) WEB-DL [H.264/1080p] [MVO]

Ответить на тему
 
Автор Сообщение

admin ®

Пол: Не указан

Стаж: 4 месяца 23 дня

Сообщений: 10110

Создавать темы 30-Янв-2024 15:52

[Цитировать]

Лаал Сингх Чадда / Laal Singh Chaddha (2022) WEB-DL - Производство: Индия / Aamir Khan Productions Ltd., Viacom18 Motion Pictures
Жанр: драма, комедия, военный, история
Режиссер: Адваит Чандан
Актеры: Аамир Кхан, Карина Капур, Нага Чайтания, Мона Сингх, Манав Видж, Абинай Радж Сингх, Р. Бхакти Клейн, Шовон Джаман, Шану Кумар, Рофик Кхан
Описание:
В детстве переболев заболеванием опорно-двигательного аппарата, Лаал откроет в себе удивительные способности к бегу, отправится на войну, получит ранение, станет звездой спорта, повстречается с великими людьми своего времени и совершенно случайно заработает состояние. И через всю жизнь пронесет светлое чувство к подруге детства.
Рейтинг MPAA: PG-13 (детям до 13 лет просмотр нежелателен)
Дата мировой премьеры: 11 августа 2022
Релиз от: HONEY&HASEENA
Продолжительность: 02:37:49
Качество видео: WEB-DL
Перевод: Многоголосый любительский (HONEY&HASEENA)
Язык озвучки: Русский
Субтитры: Русские (Hardsub на песни)
Реклама: Присутствует логотип релиз-группы и ссылка на группу ВКонтакте
Видео: AVC/H.264, 1920х1080, ~4262 Kbps
Аудио: AC3, 6 ch, 320 Kbps

MediaInfo:

Общее
Уникальный идентификатор : 243476450059003763547906558154261225599 (0xB72BDBCCB25B6261BE2579D29D85607F)
Полное имя : D:\Загрузки\Релиз\Laal.Singh.Chaddha.1080p.WEB-DL.mkv
Формат : Matroska
Версия формата : Version 4
Размер файла : 5,05 Гбайт
Продолжительность : 2 ч. 37 м.
Общий поток : 4 583 Кбит/сек
Название фильма : Laal.Singh.Chaddha.1080p.WEB-DL
Дата кодирования : UTC 2022-10-14 21:44:00
Программа кодирования : mkvmerge v45.0.0 ('Heaven in Pennies') 64-bit
Библиотека кодирования : libebml v1.3.10 + libmatroska v1.5.2 / Lavf58.12.100
Видео
Идентификатор : 2
Формат : AVC
Формат/Информация : Advanced Video Codec
Профиль формата : Main@L4
Настройки формата : CABAC / 3 Ref Frames
Параметр CABAC формата : Да
Параметр RefFrames формата : 3 кадра
Параметр GOP формата : M=1, N=25
Идентификатор кодека : V_MPEG4/ISO/AVC
Продолжительность : 2 ч. 37 м.
Битрейт : 4 262 Кбит/сек
Ширина : 1 920 пикселей
Высота : 1 080 пикселей
Соотношение сторон : 16:9
Режим частоты кадров : Постоянный
Частота кадров : 24,000 кадра/сек
Цветовое пространство : YUV
Субдискретизация насыщенности : 4:2:0
Битовая глубина : 8 бит
Тип развёртки : Прогрессивная
Бит/(Пиксели*Кадры) : 0.086
Размер потока : 4,70 Гбайт (93%)
Заголовок : Laal.Singh.Chaddha.1080p.WEB-DL
Язык : English
Default : Да
Forced : Нет
Аудио
Идентификатор : 1
Формат : AC-3
Формат/Информация : Audio Coding 3
Коммерческое название : Dolby Digital
Идентификатор кодека : A_AC3
Продолжительность : 2 ч. 37 м.
Вид битрейта : Постоянный
Битрейт : 320 Кбит/сек
Каналы : 6 каналов
Channel layout : L R C LFE Ls Rs
Частота : 48,0 КГц
Частота кадров : 31,250 кадров/сек (1536 SPF)
Метод сжатия : С потерями
Размер потока : 361 Мбайт (7%)
Service kind : Complete Main
Default : Да
Forced : Нет
Скриншоты:
Все одноименные релизы в КлубеВремя раздачи: 24/7 (минимум до появления первых 3-5 скачавших)
[Профиль] [ЛС]
Показать сообщения:    
Ответить на тему

Текущее время: 22-Фев 00:30

Часовой пояс: UTC ± 0



Вы не можете начинать темы
Вы не можете отвечать на сообщения
Вы не можете редактировать свои сообщения
Вы не можете удалять свои сообщения
Вы не можете голосовать в опросах
Вы не можете прикреплять файлы к сообщениям
Вы не можете скачивать файлы

[  Время выполнения: 0,040 сек  |  MySQL: 0,003 сек (8%) · 5 запр.  |  GZIP выкл  |  Память: 421,85 KB / 1,73 MB / 1,34 MB  |  Лимит: 15 15 14  ]