Хэллоуин заканчивается / Halloween Ends (2022) WEB-DLRip [H.264/720p-LQ] [MVO, AD]

Ответить на тему
 
Автор Сообщение

admin ®

Пол: Не указан

Стаж: 5 месяца

Сообщений: 10110

Создавать темы 30-Янв-2024 15:51

[Цитировать]

Хэллоуин заканчивается / Halloween Ends (2022) WEB-DLRip [H.264/720p-LQ] - Производство: США, Великобритания / Universal Pictures, Miramax, Blumhouse Productions, Rough House Pictures, Trancas International Films
Жанр: ужасы, триллер
Режиссер: Дэвид Гордон Грин
Продюсер: Малек Аккад, Билл Блок, Джейсон Блум и др.
Актеры: Джейми Ли Кёртис, Энди Мэтичак, Джеймс Джуд Кортни, Роэн Кэмпбелл, Уилл Пэттон, Джесси Бойд, Майкл Барбиери, Destiny Bostic, Джои Харрис, Мартин
Описание:
Четыре года прошло с последнего нападения маньяка Майкла Майерса на жителей городка Хэддонфилд. После гибели дочери Лори Стоуд живёт с внучкой Элисон, пишет книгу и пытается обрести покой. Однажды она встречает парня Кори, который несколько лет назад случайно убил ребёнка и с тех пор постоянно подвергается нападкам местных, и сводит его с Элисон. У молодых людей завязываются отношения, жизнь Кори налаживается, но он внезапно сталкивается с прячущимся в канализации Майклом Майерсом. Ни к чему хорошему эта встреча не приведёт.
Возраст: 18+ (зрителям, достигшим 18 лет. запрещено для детей)
Рейтинг MPAA: R (лицам до 17 лет обязательно присутствие взрослого)
Дата мировой премьеры: 6 октября 2022
Цифровой релиз: 14 октября 2022, «Peacock»
Релиз от: Kuzmich
Продолжительность: 01:51:57
Качество видео: WEB-DLRip
Перевод: Многоголосый любительский (MUZOBOZ)
Язык озвучки: Русский
Субтитры: Отсутствуют
Реклама: Присутствует баннер, вставки аудио и видео рекламы
Видео: AVC/H.264, 1280x536, ~4472 Kbps
Аудио: AAC, 2 ch, 576 Kbps

MediaInfo:

General
Unique ID : 234548780975283702178301580347478387553 (0xB07473BADBBD18BC9F7919A8DBF82B61)
Complete name : D:\Downloads\morb\Halloween.Ends.2022.P.720p.WEB-DLRip.Soft-Torrent - торрент игры программы фильмы книги скачать.mkv
Format : Matroska
Format version : Version 2
File size : 3.95 GiB
Duration : 1 h 51 min
Overall bit rate : 5 047 kb/s
Encoded date : UTC 2022-10-14 09:27:04
Writing application : mkvmerge v8.3.0 ('Over the Horizon') 64bit
Writing library : libebml v1.3.1 + libmatroska v1.4.2
Video
ID : 1
Format : AVC
Format/Info : Advanced Video Codec
Format profile : High@L4.1
Format settings : CABAC / 4 Ref Frames
Format settings, CABAC : Yes
Format settings, Reference frames : 4 frames
Codec ID : V_MPEG4/ISO/AVC
Duration : 1 h 51 min
Bit rate mode : Constant
Bit rate : 4 472 kb/s
Nominal bit rate : 5 000 kb/s
Width : 1 280 pixels
Height : 536 pixels
Display aspect ratio : 2.40:1
Frame rate mode : Constant
Frame rate : 23.976 (24000/1001) FPS
Standard : Component
Color space : YUV
Chroma subsampling : 4:2:0
Bit depth : 8 bits
Scan type : Progressive
Bits/(Pixel*Frame) : 0.272
Stream size : 3.50 GiB (89%)
Writing library : x264 core 155
Encoding settings : cabac=1 / ref=4 / deblock=1:0:0 / analyse=0x3:0x3 / me=dia / subme=1 / psy=1 / psy_rd=1.00:0.00 / mixed_ref=0 / me_range=16 / chroma_me=1 / trellis=0 / 8x8dct=1 / cqm=1 / deadzone=21,11 / fast_pskip=1 / chroma_qp_offset=0 / threads=17 / lookahead_threads=2 / sliced_threads=0 / slices=1 / nr=0 / decimate=1 / interlaced=0 / minigop=0 / stitchable=1 / constrained_intra=0 / bframes=2 / b_pyramid=0 / b_adapt=0 / b_bias=0 / direct=1 / weightb=1 / open_gop=1 / weightp=0 / keyint=240 / keyint_min=23 / scenecut=0 / intra_refresh=0 / rc_lookahead=0 / rc=cbr / mbtree=0 / bitrate=5000 / ratetol=1.0 / qcomp=0.60 / qpmin=1 / qpmax=69 / qpstep=4 / vbv_maxrate=5000 / vbv_bufsize=5000 / nal_hrd=cbr / filler=1 / ip_ratio=1.40 / pb_ratio=1.30 / aq=1:1.00
Default : Yes
Forced : No
Color range : Limited
Color primaries : BT.709
Transfer characteristics : BT.709
Matrix coefficients : BT.709
Audio
ID : 2
Format : AAC Main
Format/Info : Advanced Audio Codec
Codec ID : A_AAC-1
Duration : 1 h 51 min
Bit rate : 576 kb/s
Channel(s) : 2 channels
Channel layout : L R
Sampling rate : 48.0 kHz
Frame rate : 46.875 FPS (1024 SPF)
Compression mode : Lossy
Stream size : 459 MiB (11%)
Default : Yes
Forced : No
Скриншоты:
Все одноименные релизы в КлубеВремя раздачи: 24/7 (минимум до появления первых 3-5 скачавших)
[Профиль] [ЛС]
Показать сообщения:    
Ответить на тему

Текущее время: 28-Фев 22:42

Часовой пояс: UTC ± 0



Вы не можете начинать темы
Вы не можете отвечать на сообщения
Вы не можете редактировать свои сообщения
Вы не можете удалять свои сообщения
Вы не можете голосовать в опросах
Вы не можете прикреплять файлы к сообщениям
Вы не можете скачивать файлы

[  Время выполнения: 0,036 сек  |  MySQL: 0,003 сек (8%) · 3 запр.  |  GZIP выкл  |  Память: 422,29 KB / 1,74 MB / 1,34 MB  |  Лимит: 12 11 12  ]