Дитя тьмы: Первая жертва / Orphan: First Kill (2022) WEBRip [Line, AD]

Ответить на тему
 
Автор Сообщение

admin ®

Пол: Не указан

Стаж: 5 месяца

Сообщений: 10110

Создавать темы 30-Янв-2024 15:49

[Цитировать]

Дитя тьмы: Первая жертва / Orphan: First Kill (2022) WEBRip - Производство: США / Dark Castle Entertainment, Eagle Vision, Entertainment One
Жанр: триллер, драма, криминал
Режиссер: Уильям Брент Белл
Актеры: Изабель Фурман, Джулия Стайлз, Россиф Сазерленд, Хиро Канагава, Мэттью Финлан, Саманта Уолкс, Дэвид Браун, Лорен Кокрейн, Гвендолин Коллинс, Кристен Савацки
Описание:
2007 год. Сбежав из эстонской психиатрической больницы, 31-летняя женщина Лина, которая из-за заболевания выглядит на 9 лет, находит среди объявлений о пропавших детях похожую на себя девочку. Та оказывается из богатой американской семьи, и вот уже чудом обнаруженная «Эстер» возвращается к счастливым «родителям» и «старшему брату».
Возраст: 18+ (зрителям, достигшим 18 лет. запрещено для детей)
Рейтинг MPAA: R (лицам до 17 лет обязательно присутствие взрослого)
Дата мировой премьеры: 27 июля 2022
Дата российской премьеры: 11 августа 2022, «Парадиз»
Продолжительность: 01:33:09
Качество видео: WEBRip
Перевод: Дублированный (Line)
Субтитры: Отсутствуют
Реклама: Присутствует баннер
Видео: XviD, 720x384, ~2136 Kbps
Аудио: AC-3, 2 ch, 192 Kbps

MediaInfo:

Общее
Полное имя : D:\NNM\Дитя тьмы\Orphan.First.Kill.2022.WEBRip.avi
Формат : AVI
Формат/Информация : Audio Video Interleave
Размер файла : 1,52 Гбайт
Продолжительность : 1 ч. 33 м.
Общий поток : 2 337 Кбит/сек
Программа кодирования : VirtualDubMod 1.5.10.3 | www.virtualdub-fr.org || (build 2550/release)
Библиотека кодирования : VirtualDubMod build 2550/release
Видео
Идентификатор : 0
Формат : MPEG-4 Visual
Профиль формата : Advanced Simple@L5
Настройки формата : BVOP1 / Custom Matrix
Параметр BVOP формата : 1
Параметр QPel формата : Нет
Параметр GMC формата : Без точки перехода
Параметр матрицы формата : Выборочная
Идентификатор кодека : XVID
Идентификатор кодека/Подсказка : XviD
Продолжительность : 1 ч. 33 м.
Битрейт : 2 136 Кбит/сек
Ширина : 720 пикселей
Высота : 384 пикселя
Соотношение сторон : 1,85:1
Частота кадров : 23,976 (24000/1001) кадра/сек
Цветовое пространство : YUV
Субдискретизация насыщенности : 4:2:0
Битовая глубина : 8 бит
Тип развёртки : Прогрессивная
Метод сжатия : С потерями
Бит/(Пиксели*Кадры) : 0.322
Размер потока : 1,39 Гбайт (91%)
Библиотека кодирования : XviD 73
Аудио
Идентификатор : 1
Формат : AC-3
Формат/Информация : Audio Coding 3
Коммерческое название : Dolby Digital
Идентификатор кодека : 2000
Продолжительность : 1 ч. 33 м.
Вид битрейта : Постоянный
Битрейт : 192 Кбит/сек
Каналы : 2 канала
Channel layout : L R
Частота : 48,0 КГц
Частота кадров : 31,250 кадров/сек (1536 SPF)
Метод сжатия : С потерями
Размер потока : 128 Мбайт (8%)
Выравнивание : Разделение по промежуткам
Продолжительность промежутка : 42 мс. (1,00 видеокадр)
Время предзагрузки промежутка : 500 мс.
Service kind : Complete Main
Скриншоты:
Все одноименные релизы в КлубеВремя раздачи: 24/7 (до 10-ти скачавших)
[Профиль] [ЛС]
Показать сообщения:    
Ответить на тему

Текущее время: 28-Фев 22:49

Часовой пояс: UTC ± 0



Вы не можете начинать темы
Вы не можете отвечать на сообщения
Вы не можете редактировать свои сообщения
Вы не можете удалять свои сообщения
Вы не можете голосовать в опросах
Вы не можете прикреплять файлы к сообщениям
Вы не можете скачивать файлы

[  Время выполнения: 0,037 сек  |  MySQL: 0,003 сек (8%) · 3 запр.  |  GZIP выкл  |  Память: 422,29 KB / 1,74 MB / 1,34 MB  |  Лимит: 9 10 11  ]