Нет / Nope (2022) WEB-DLRip [H.264/720p-LQ] [MVO, AD]

Ответить на тему
 
Автор Сообщение

admin ®

Пол: Не указан

Стаж: 5 месяца

Сообщений: 10110

Создавать темы 30-Янв-2024 15:48

[Цитировать]

Нет / Nope (2022) WEB-DLRip [H.264/720p-LQ] - Производство: США, Япония / Dentsu, Monkeypaw Prodctions, Universal Pictures
Жанр: ужасы, фантастика, триллер, детектив
Режиссер: Джордан Пил
Продюсер: Иэн Купер, Карен Рут Гетчелл, Роберт Граф и др.
Актеры: Дэниэл Калуя, Кеке Палмер, Стивен Ян, Брэндон Переа, Майкл Уинкотт, Ренн Шмидт, Кит Дэвид, Девон Грайе, Терри Нотари, Барби Феррейра
Описание:
Облако непонятного происхождения сильно портит жизнь владельцам небольшого ранчо.
Возраст: 16+ (зрителям, достигшим 16 лет)
Рейтинг MPAA: R (лицам до 17 лет обязательно присутствие взрослого)
Дата мировой премьеры: 18 июля 2022
Продолжительность: 02:11:11
Качество видео: WEB-DLRip
Перевод: Многоголосый профессиональный (MUZOBOZ)
Язык озвучки: Русский
Субтитры: Отсутствуют
Реклама: Присутствует баннер, вставки аудио и видео рекламы
Видео: AVC/H.264, 1280x580, ~5000 Kbps, 23.976 fps
Аудио: AAC, 2 ch, 576 Kbps - Русский (MVO, MUZOBOZ)

MediaInfo:

General
Unique ID : 251012746600687319914985936427207059481 (0xBCD74BE8163E73D895E19D2A4E336819)
Complete name : D:\Downloads\morb\Nope.2022.P.WEB-DLRip.[72Op].Soft-Torrent - торрент игры программы фильмы книги скачать.mkv
Format : Matroska
Format version : Version 2
File size : 5.07 GiB
Duration : 2 h 11 min
Overall bit rate : 5 529 kb/s
Encoded date : UTC 2022-08-25 10:27:19
Writing application : mkvmerge v8.3.0 ('Over the Horizon') 64bit
Writing library : libebml v1.3.1 + libmatroska v1.4.2
Video
ID : 1
Format : AVC
Format/Info : Advanced Video Codec
Format profile : High@L4.1
Format settings : CABAC / 4 Ref Frames
Format settings, CABAC : Yes
Format settings, Reference frames : 4 frames
Codec ID : V_MPEG4/ISO/AVC
Duration : 2 h 11 min
Bit rate mode : Constant
Bit rate : 5 000 kb/s
Width : 1 280 pixels
Height : 580 pixels
Display aspect ratio : 2.2:1
Frame rate mode : Constant
Frame rate : 23.976 (24000/1001) FPS
Standard : Component
Color space : YUV
Chroma subsampling : 4:2:0
Bit depth : 8 bits
Scan type : Progressive
Bits/(Pixel*Frame) : 0.281
Stream size : 4.54 GiB (90%)
Default : Yes
Forced : No
Color range : Limited
Color primaries : BT.709
Transfer characteristics : BT.709
Matrix coefficients : BT.709
Audio
ID : 2
Format : AAC Main
Format/Info : Advanced Audio Codec
Codec ID : A_AAC-1
Duration : 2 h 11 min
Bit rate : 576 kb/s
Channel(s) : 2 channels
Channel layout : L R
Sampling rate : 48.0 kHz
Frame rate : 46.875 FPS (1024 SPF)
Compression mode : Lossy
Stream size : 538 MiB (10%)
Default : Yes
Forced : No
Скриншоты:
Все одноименные релизы в КлубеВремя раздачи: 24/7 (минимум до появления первых 3-5 скачавших)
[Профиль] [ЛС]
Показать сообщения:    
Ответить на тему

Текущее время: 28-Фев 23:20

Часовой пояс: UTC ± 0



Вы не можете начинать темы
Вы не можете отвечать на сообщения
Вы не можете редактировать свои сообщения
Вы не можете удалять свои сообщения
Вы не можете голосовать в опросах
Вы не можете прикреплять файлы к сообщениям
Вы не можете скачивать файлы

[  Время выполнения: 0,036 сек  |  MySQL: 0,004 сек (12%) · 5 запр.  |  GZIP выкл  |  Память: 422,29 KB / 1,73 MB / 1,34 MB  |  Лимит: 9 10 10  ]