Время для себя / Me Time (2022) WEB-DLRip [H.264/1080p-LQ] [MVO, AD]

Ответить на тему
 
Автор Сообщение

admin ®

Пол: Не указан

Стаж: 4 месяца 27 дня

Сообщений: 10110

Создавать темы 30-Янв-2024 15:48

[Цитировать]

Время для себя / Me Time (2022) WEB-DLRip [H.264/1080p-LQ] - Производство: США, 5150 Action, Hartbeat Productions
Жанр: комедия
Режиссер: Джон Гамбург
Продюсер: Патриша Брага, Джо Гатта, Джон Гамбург и др.
Актеры: Марк Уолберг, Кевин Харт, Луис Херардо Мендес, Реджина Холл, Джимми О. Ян, Джон Эймос, Таж Моури, Анна Мария Хорсфорд, Эндрю Сантино, Карло Рота
Описание:
Сонни и Майя — счастливая пара с двумя детьми. Она работает в архитектурном агентстве, он следит за хозяйством и воспитывает сына с дочерью. Когда друг юности Хак зовет Сонни на уик-энд в честь дня рождения, в размеренной жизни мужчины начинаются приключения.
Возраст: 16+ (зрителям, достигшим 16 лет)
Рейтинг MPAA: R (лицам до 17 лет обязательно присутствие взрослого)
Дата мировой премьеры: 26 августа 2022
Цифровой релиз: 26 августа 2022, «Netflix»
Продолжительность: 01:45:07
Качество видео: WEB-DLRip
Перевод: Многоголосый любительский (MUZOBOZ)
Язык озвучки: Русский
Субтитры: Отсутствуют
Реклама: Присутствует баннер, вставки аудио и видео рекламы
Видео: AVC/H.264, 1920x800, ~8284 Kbps, 23.976 fps
Аудио: AAC, 2 ch, 576 Kbps

MediaInfo:

General
Unique ID : 184165489812943470138346344846634724951 (0x8A8CFBB011A6F530A0A612D6B61B2E57)
Complete name : D:\Downloads\morb\Me.Time.2022.P.WEB-DLRip.[1080p].Soft-Torrent - торрент игры программы фильмы книги скачать.mkv
Format : Matroska
Format version : Version 2
File size : 6.51 GiB
Duration : 1 h 45 min
Overall bit rate : 8 859 kb/s
Encoded date : UTC 2022-08-26 11:31:25
Writing application : mkvmerge v8.3.0 ('Over the Horizon') 64bit
Writing library : libebml v1.3.1 + libmatroska v1.4.2
Video
ID : 1
Format : AVC
Format/Info : Advanced Video Codec
Format profile : High@L4.1
Format settings : CABAC / 4 Ref Frames
Format settings, CABAC : Yes
Format settings, Reference frames : 4 frames
Codec ID : V_MPEG4/ISO/AVC
Duration : 1 h 45 min
Bit rate mode : Constant
Bit rate : 8 284 kb/s
Nominal bit rate : 9 000 kb/s
Width : 1 920 pixels
Height : 800 pixels
Display aspect ratio : 2.40:1
Frame rate mode : Constant
Frame rate : 23.976 (24000/1001) FPS
Standard : Component
Color space : YUV
Chroma subsampling : 4:2:0
Bit depth : 8 bits
Scan type : Progressive
Bits/(Pixel*Frame) : 0.225
Stream size : 6.08 GiB (94%)
Default : Yes
Forced : No
Color range : Limited
Color primaries : BT.709
Transfer characteristics : BT.709
Matrix coefficients : BT.709
Audio
ID : 2
Format : AAC Main
Format/Info : Advanced Audio Codec
Codec ID : A_AAC-1
Duration : 1 h 45 min
Bit rate : 576 kb/s
Channel(s) : 2 channels
Channel layout : L R
Sampling rate : 48.0 kHz
Frame rate : 46.875 FPS (1024 SPF)
Compression mode : Lossy
Stream size : 431 MiB (6%)
Default : Yes
Forced : No

Дополнительная информация:

Во время съемок произошел несчастный случай: техник сцены упал с высоты 9 метров и получил серьезную травму. Мужчину доставили в местный региональный травматологический центр, где ему оказали медицинскую помощь
Скриншоты:
Все одноименные релизы в КлубеВремя раздачи: 24/7 (минимум до появления 10-ти скачавших)
[Профиль] [ЛС]
Показать сообщения:    
Ответить на тему

Текущее время: 25-Фев 19:27

Часовой пояс: UTC ± 0



Вы не можете начинать темы
Вы не можете отвечать на сообщения
Вы не можете редактировать свои сообщения
Вы не можете удалять свои сообщения
Вы не можете голосовать в опросах
Вы не можете прикреплять файлы к сообщениям
Вы не можете скачивать файлы

[  Время выполнения: 0,038 сек  |  MySQL: 0,003 сек (9%) · 3 запр.  |  GZIP выкл  |  Память: 422,29 KB / 1,74 MB / 1,34 MB  |  Лимит: 7 10 13  ]