Вышка / Fall (2022) WEB-DLRip [H.264/720p-LQ] [Line, AD]

Ответить на тему
 
Автор Сообщение

admin ®

Пол: Не указан

Стаж: 4 месяца 27 дня

Сообщений: 10110

Создавать темы 30-Янв-2024 15:48

[Цитировать]

Вышка / Fall (2022) WEB-DLRip [H.264/720p-LQ] - Производство: Великобритания, США / Capstone Studios, Tea Shop & Film Compa
Жанр: триллер
Режиссер: Скотт Манн
Продюсер: Дэвид Хэйринг, Джеймс Харрис, Марк Лэйн и др.
Актеры: Грэйс Фултон, Вирджиния Гарднер, Джеффри Дин Морган, Мэйсон Гудинг, Джаспер Коул, Branden Currey, Даррел Деннис, Бамм Эриксен, Nick Lynes, Evie Mann
Описание:
Бекки всегда была экстремалом, но после гибели мужа решила прекратить погоню за адреналином. Её ждет последнее восхождение — вместе с подругой Бекки забирается на вершину радиомачты высотой более 600 метров, чтобы развеять прах супруга. Теперь девушкам предстоит вступить в борьбу со стихией в призрачной надежде на спасение.
Возраст: 18+ (зрителям, достигшим 18 лет. запрещено для детей)
Рейтинг MPAA: PG-13 (детям до 13 лет просмотр нежелателен)
Дата мировой премьеры: 10 августа 2022
Дата российской премьеры: 11 августа 2022, «Global Film»
Продолжительность: 01:43:13
Качество видео: WEB-DLRip
Перевод: Дублированный (Line)
Язык озвучки: Русский
Субтитры: Отсутствуют
Реклама: Присутствует баннер, вставки аудио и видео рекламы
Видео: AVC/H.264, 1280x664, ~5000 Kbps
Аудио: AAC, 2 ch, 576 Kbps

MediaInfo:

General
Unique ID : 213731441486174719381674859208525514776 (0xA0CB2DA67AC79896AC17708666C48818)
Complete name : E:\morb2.0\Fall.2022.D.WEB-DLRip.720p.Soft-Torrent - торрент игры программы фильмы книги скачать.mkv
Format : Matroska
Format version : Version 2
File size : 3.94 GiB
Duration : 1 h 43 min
Overall bit rate : 5 466 kb/s
Encoded date : UTC 2022-08-31 22:28:57
Writing application : mkvmerge v8.3.0 ('Over the Horizon') 64bit
Writing library : libebml v1.3.1 + libmatroska v1.4.2
Video
ID : 1
Format : AVC
Format/Info : Advanced Video Codec
Format profile : High@L4.1
Format settings : CABAC / 4 Ref Frames
Format settings, CABAC : Yes
Format settings, Reference frames : 4 frames
Codec ID : V_MPEG4/ISO/AVC
Duration : 1 h 43 min
Bit rate mode : Constant
Bit rate : 5 000 kb/s
Width : 1 280 pixels
Height : 664 pixels
Display aspect ratio : 1.928
Frame rate mode : Constant
Frame rate : 25.000 FPS
Standard : Component
Color space : YUV
Chroma subsampling : 4:2:0
Bit depth : 8 bits
Scan type : Progressive
Bits/(Pixel*Frame) : 0.235
Stream size : 3.53 GiB (89%)
Default : Yes
Forced : No
Color range : Limited
Color primaries : BT.709
Transfer characteristics : BT.709
Matrix coefficients : BT.709
Audio
ID : 2
Format : AAC Main
Format/Info : Advanced Audio Codec
Codec ID : A_AAC-1
Duration : 1 h 43 min
Bit rate : 576 kb/s
Channel(s) : 2 channels
Channel layout : L R
Sampling rate : 48.0 kHz
Frame rate : 46.875 FPS (1024 SPF)
Compression mode : Lossy
Stream size : 423 MiB (10%)
Default : Yes
Forced : No
Скриншоты:
Все одноименные релизы в КлубеВремя раздачи: 24/7 (минимум до появления первых 3-5 скачавших)
[Профиль] [ЛС]
Показать сообщения:    
Ответить на тему

Текущее время: 25-Фев 21:07

Часовой пояс: UTC ± 0



Вы не можете начинать темы
Вы не можете отвечать на сообщения
Вы не можете редактировать свои сообщения
Вы не можете удалять свои сообщения
Вы не можете голосовать в опросах
Вы не можете прикреплять файлы к сообщениям
Вы не можете скачивать файлы

[  Время выполнения: 0,033 сек  |  MySQL: 0,004 сек (13%) · 3 запр.  |  GZIP выкл  |  Память: 422,29 KB / 1,72 MB / 1,32 MB  |  Лимит: 10 12 11  ]