Зверь / Beast (2022) WEB-DLRip [H.264/720p-LQ] [MVO, AD]

Ответить на тему
 
Автор Сообщение

admin ®

Пол: Не указан

Стаж: 5 месяца

Сообщений: 10110

Создавать темы 30-Янв-2024 15:48

[Цитировать]

Зверь / Beast (2022) WEB-DLRip [H.264/720p-LQ]
«Sometimes the rustle in the bushes actually is a monster»
- Производство: США, Исландия / RVK Studios, Universal Pictures, Will Packer Productions
Жанр: триллер, драма, приключения
Режиссер: Бальтасар Кормакур
Продюсер: Бальтасар Кормакур, Джеймс Лопес, Уильям Пэкер и др.
Актеры: Liyabuya Gongo, Мартин Манро, Дэниэл Хадебе, Тапело Себогоди, Chris Langa, Mduduzi Mavimbela, Крис Гчалаба, Идрис Эльба, Kazi Khuboni, Леа Джеффрис
Описание:
После смерти жены доктор Нэйт Дэниелс возвращается в Южную Африку, где они познакомились. Вместе с дочерьми он направляется в заповедник, которым управляет давний друг семьи Мартин Баттлс. Однако семейная поездка оборачивается опасным приключением, в котором Нэйту придется вступить в противостояние со свирепым львом.
Рейтинг MPAA: R (лицам до 17 лет обязательно присутствие взрослого)
Дата мировой премьеры: 10 августа 2022
Продолжительность: 01:33:35
Качество видео: WEB-DLRip
Перевод: Многоголосый любительский (MUZOBOZ)
Язык озвучки: Русский
Субтитры: Отсутствуют
Реклама: Присутствует баннер, вставки аудио и видео рекламы
Видео: AVC/H.264, 1280x536, ~6000 Kbps
Аудио: AAC, 2 ch, 576 Kbps

MediaInfo:

General
Unique ID : 213279488595517008241714035442845223931 (0xA07422A7043C3D2FBA8B30F8A6F80BFB)
Complete name : D:\Downloads\morb\Beast.2022.P.WEB-DLRip.720p.Soft-Torrent - торрент игры программы фильмы книги скачать.mkv
Format : Matroska
Format version : Version 2
File size : 4.23 GiB
Duration : 1 h 33 min
Overall bit rate : 6 466 kb/s
Encoded date : UTC 2022-09-08 11:23:00
Writing application : mkvmerge v8.3.0 ('Over the Horizon') 64bit
Writing library : libebml v1.3.1 + libmatroska v1.4.2
Video
ID : 1
Format : AVC
Format/Info : Advanced Video Codec
Format profile : High@L4.1
Format settings : CABAC / 4 Ref Frames
Format settings, CABAC : Yes
Format settings, Reference frames : 4 frames
Codec ID : V_MPEG4/ISO/AVC
Duration : 1 h 33 min
Bit rate mode : Constant
Bit rate : 6 000 kb/s
Width : 1 280 pixels
Height : 536 pixels
Display aspect ratio : 2.40:1
Frame rate mode : Constant
Frame rate : 23.976 (24000/1001) FPS
Standard : Component
Color space : YUV
Chroma subsampling : 4:2:0
Bit depth : 8 bits
Scan type : Progressive
Bits/(Pixel*Frame) : 0.365
Stream size : 3.85 GiB (91%)
Default : Yes
Forced : No
Color range : Limited
Color primaries : BT.709
Transfer characteristics : BT.709
Matrix coefficients : BT.709
Audio
ID : 2
Format : AAC Main
Format/Info : Advanced Audio Codec
Codec ID : A_AAC-1
Duration : 1 h 33 min
Bit rate : 576 kb/s
Channel(s) : 2 channels
Channel layout : L R
Sampling rate : 48.0 kHz
Frame rate : 46.875 FPS (1024 SPF)
Compression mode : Lossy
Stream size : 384 MiB (9%)
Default : Yes
Forced : No
Скриншоты:
Все одноименные релизы в КлубеВремя раздачи: 24/7 (минимум до появления первых 3-5 скачавших)
[Профиль] [ЛС]
Показать сообщения:    
Ответить на тему

Текущее время: 28-Фев 22:27

Часовой пояс: UTC ± 0



Вы не можете начинать темы
Вы не можете отвечать на сообщения
Вы не можете редактировать свои сообщения
Вы не можете удалять свои сообщения
Вы не можете голосовать в опросах
Вы не можете прикреплять файлы к сообщениям
Вы не можете скачивать файлы

[  Время выполнения: 0,033 сек  |  MySQL: 0,002 сек (7%) · 3 запр.  |  GZIP выкл  |  Память: 422,29 KB / 1,74 MB / 1,34 MB  |  Лимит: 9 12 15  ]