Зверь / Beast (2022) WEB-DLRip [MVO, AD]

Ответить на тему
 
Автор Сообщение

admin ®

Пол: Не указан

Стаж: 5 месяца

Сообщений: 10110

Создавать темы 30-Янв-2024 15:47

[Цитировать]

Зверь / Beast (2022) WEB-DLRip
«Sometimes the rustle in the bushes actually is a monster»
- Производство: США, Исландия / RVK Studios, Universal Pictures, Will Packer Productions
Жанр: триллер, драма, приключения
Режиссер: Бальтасар Кормакур
Продюсер: Бальтасар Кормакур, Джеймс Лопес, Уильям Пэкер и др.
Актеры: Liyabuya Gongo, Мартин Манро, Дэниэл Хадебе, Тапело Себогоди, Chris Langa, Mduduzi Mavimbela, Крис Гчалаба, Идрис Эльба, Kazi Khuboni, Леа Д
Описание:
После смерти жены доктор Нэйт Дэниелс возвращается в Южную Африку, где они познакомились. Вместе с дочерьми он направляется в заповедник, которым управляет давний друг семьи Мартин Баттлс. Однако семейная поездка оборачивается опасным приключением, в котором Нэйту придется вступить в противостояние со свирепым львом.
Рейтинг MPAA: R (лицам до 17 лет обязательно присутствие взрослого)
Дата мировой премьеры: 10 августа 2022
Продолжительность: 01:33:35
Качество видео: WEB-DLRip
Перевод: Многоголосый любительский (MUZOBOZ)
Язык озвучки: Русский
Субтитры: Отсутствуют
Реклама: Присутствует баннер, вставки аудио и видео рекламы
Видео: Xvid, 720x304, ~1698 Kbps
Аудио: AC3, 2 ch, 384 Kbps

MediaInfo:

General
Complete name : D:\Downloads\morb\Beast.2022.P.WEB-DLRip.Soft-Torrent - торрент игры программы фильмы книги скачать.avi
Format : AVI
Format/Info : Audio Video Interleave
File size : 1.37 GiB
Duration : 1 h 33 min
Overall bit rate : 2 091 kb/s
Writing application : VirtualDubMod 1.5.10.3 | www.virtualdub-fr.org || (build 2550/release)
Writing library : VirtualDubMod build 2550/release
Video
ID : 0
Format : MPEG-4 Visual
Format profile : Advanced Simple@L5
Format settings : BVOP2 / Custom Matrix
Format settings, BVOP : 2
Format settings, QPel : No
Format settings, GMC : No warppoints
Format settings, Matrix : Custom
Codec ID : XVID
Codec ID/Hint : XviD
Duration : 1 h 33 min
Bit rate : 1 698 kb/s
Width : 720 pixels
Height : 304 pixels
Display aspect ratio : 2.35:1
Frame rate : 23.976 (24000/1001) FPS
Color space : YUV
Chroma subsampling : 4:2:0
Bit depth : 8 bits
Scan type : Progressive
Compression mode : Lossy
Bits/(Pixel*Frame) : 0.323
Stream size : 1.11 GiB (81%)
Writing library : XviD 1.2.1 (UTC 2008-12-04)
Audio
ID : 1
Format : AC-3
Format/Info : Audio Coding 3
Commercial name : Dolby Digital
Codec ID : 2000
Duration : 1 h 33 min
Bit rate mode : Constant
Bit rate : 384 kb/s
Channel(s) : 2 channels
Channel layout : L R
Sampling rate : 48.0 kHz
Frame rate : 31.250 FPS (1536 SPF)
Compression mode : Lossy
Stream size : 257 MiB (18%)
Alignment : Split across interleaves
Interleave, duration : 42 ms (1.00 video frame)
Interleave, preload duration : 500 ms
Service kind : Complete Main
Скриншоты:
Все одноименные релизы в КлубеВремя раздачи: 24/7 (минимум до появления первых 3-5 скачавших)
[Профиль] [ЛС]
Показать сообщения:    
Ответить на тему

Текущее время: 28-Фев 22:34

Часовой пояс: UTC ± 0



Вы не можете начинать темы
Вы не можете отвечать на сообщения
Вы не можете редактировать свои сообщения
Вы не можете удалять свои сообщения
Вы не можете голосовать в опросах
Вы не можете прикреплять файлы к сообщениям
Вы не можете скачивать файлы

[  Время выполнения: 0,034 сек  |  MySQL: 0,003 сек (9%) · 3 запр.  |  GZIP выкл  |  Память: 422,29 KB / 1,74 MB / 1,34 MB  |  Лимит: 9 10 13  ]