Волки войны / Wolves of War (2022) WEB-DLRip [H.264/1080p-LQ] [MVO, AD]

Ответить на тему
 
Автор Сообщение

admin ®

Пол: Не указан

Стаж: 6 месяца 22 дня

Сообщений: 11520

Создавать темы 30-Янв-2024 15:47

[Цитировать]

Волки войны / Wolves of War (2022) WEB-DLRip [H.264/1080p-LQ] - Производство: Великобритания / Picture Perfect
Жанр: военный
Режиссер: Джиллз Алдерсон
Продюсер: Джит Тхакрар, Люсинда Родс-Флаэрти, Рик Гордон и др.
Актеры: Руперт Грейвз, Эд Вествик, Anastasia Martin, Сэм Гиттинс, Джек Парр, Эва Мадьяр, Дженнифер Мартин, Джеми Бен Чэмберс, Мэтт Уиллис, Джексон Бьюз
Описание:
В конце Второй мировой войны суровый британский офицер стал во главе группы находящейся в самом тылу врага для того, чтобы выполнить важные миссии по освобождению ученого-американца, который оказался захвачен в заложники. Дабы в итоге помешать работе нацистов по разработке атомной бомбы.
Дата мировой премьеры: 12 сентября 2022
Продолжительность: 01:27:18
Качество видео: WEB-DLRip
Перевод: Многоголосый любительский (MUZOBOZ)
Язык озвучки: Русский
Субтитры: Отсутствуют
Реклама: Присутствует баннер, вставки аудио и видео рекламы
Видео: AVC/H.264, 1920x1080, ~7000 Kbps
Аудио: AAC, 2 ch, 576 Kbps

MediaInfo:

General
Unique ID : 220379876782133742182071636000640542535 (0xA5CB9ED1741E267E9A02D86EBD272747)
Complete name : D:\Downloads\morb\Wolves.of.War.2022.P.WEB-DLRip.1O8Op.Soft-Torrent - торрент игры программы фильмы книги скачать.mkv
Format : Matroska
Format version : Version 2
File size : 4.54 GiB
Duration : 1 h 27 min
Overall bit rate : 7 444 kb/s
Encoded date : UTC 2022-09-12 12:07:35
Writing application : mkvmerge v8.3.0 ('Over the Horizon') 64bit
Writing library : libebml v1.3.1 + libmatroska v1.4.2
Video
ID : 1
Format : AVC
Format/Info : Advanced Video Codec
Format profile : High@L4.1
Format settings : CABAC / 4 Ref Frames
Format settings, CABAC : Yes
Format settings, Reference frames : 4 frames
Codec ID : V_MPEG4/ISO/AVC
Duration : 1 h 27 min
Bit rate mode : Constant
Bit rate : 7 000 kb/s
Width : 1 920 pixels
Height : 1 080 pixels
Display aspect ratio : 16:9
Frame rate mode : Constant
Frame rate : 23.976 (24000/1001) FPS
Standard : Component
Color space : YUV
Chroma subsampling : 4:2:0
Bit depth : 8 bits
Scan type : Progressive
Bits/(Pixel*Frame) : 0.141
Stream size : 4.19 GiB (92%)
Default : Yes
Forced : No
Color range : Limited
Color primaries : BT.709
Transfer characteristics : BT.709
Matrix coefficients : BT.709
Audio
ID : 2
Format : AAC Main
Format/Info : Advanced Audio Codec
Codec ID : A_AAC-1
Duration : 1 h 27 min
Bit rate : 576 kb/s
Channel(s) : 2 channels
Channel layout : L R
Sampling rate : 48.0 kHz
Frame rate : 46.875 FPS (1024 SPF)
Compression mode : Lossy
Stream size : 358 MiB (8%)
Default : Yes
Forced : No
Скриншоты:
Все одноименные релизы в КлубеВремя раздачи: 24/7 (минимум до появления первых 3-5 скачавших)
[Профиль] [ЛС]
Показать сообщения:    
Ответить на тему

Текущее время: 20-Апр 19:55

Часовой пояс: UTC ± 0



Вы не можете начинать темы
Вы не можете отвечать на сообщения
Вы не можете редактировать свои сообщения
Вы не можете удалять свои сообщения
Вы не можете голосовать в опросах
Вы не можете прикреплять файлы к сообщениям
Вы не можете скачивать файлы

[  Время выполнения: 0,038 сек  |  MySQL: 0,004 сек (9%) · 5 запр.  |  GZIP выкл  |  Память: 422,29 KB / 1,73 MB / 1,33 MB  |  Лимит: 4 4 5  ]