Марго / Margaux (2022) WEB-DLRip [H.264/1080p-LQ] [MVO, AD]

Ответить на тему
 
Автор Сообщение

admin ®

Пол: Не указан

Стаж: 7 месяца 24 дня

Сообщений: 11520

Создавать темы 30-Янв-2024 15:47

[Цитировать]

Марго / Margaux (2022) WEB-DLRip [H.264/1080p-LQ]
«Welcome Home»
- Производство: США / Lighthouse Pictures, Motion Picture Corporation of America (MPCA)
Жанр: ужасы, триллер
Режиссер: Стивен С. Миллер
Продюсер: Джэми Горинг, Брэд Кревой, Мик Маккэй и др.
Актеры: Ричард Хэрмон, Локлин Манро, Мэдисон Петтис, Джедидайя Гудакр, Ванесса Морган, Фиби Миу, Бриттани Митчелл, Jordan Buhat, Луис Лэй
Описание:
Дабы как следует отметить свои заключительные деньки в колледже, компашка друзей арендовала умный дом, которым управляет высокотехнологичной системой искусственного интеллекта Марго. Ребята ещё не в курсе о том, что у Марго имеются собственные зловещие планы в отношении к своим гостям.
Рейтинг MPAA: R (лицам до 17 лет обязательно присутствие взрослого)
Дата мировой премьеры: 9 сентября 2022
Продолжительность: 01:44:58
Качество видео: WEB-DLRip
Перевод: Многоголосый любительский (MUZOBOZ)
Язык озвучки: Русский
Субтитры: Отсутствуют
Реклама: Присутствует баннер, вставки аудио и видео рекламы
Видео: AVC/H.264, 1920x800, ~8000 Kbps
Аудио: AAC, 2 ch, 576 Kbps

MediaInfo:

General
Unique ID : 253193951229833023802868940866299185491 (0xBE7B619904B6B207847742F8C33D4953)
Complete name : D:\Downloads\morb\Margaux.2022.P.WEB-DLRip.1080p.Soft-Torrent - торрент игры программы фильмы книги скачать.mkv
Format : Matroska
Format version : Version 2
File size : 6.24 GiB
Duration : 1 h 44 min
Overall bit rate : 8 507 kb/s
Encoded date : UTC 2022-09-09 11:18:47
Writing application : mkvmerge v8.3.0 ('Over the Horizon') 64bit
Writing library : libebml v1.3.1 + libmatroska v1.4.2
Video
ID : 1
Format : AVC
Format/Info : Advanced Video Codec
Format profile : High@L4.1
Format settings : CABAC / 4 Ref Frames
Format settings, CABAC : Yes
Format settings, Reference frames : 4 frames
Codec ID : V_MPEG4/ISO/AVC
Duration : 1 h 44 min
Bit rate mode : Constant
Bit rate : 8 000 kb/s
Width : 1 920 pixels
Height : 800 pixels
Display aspect ratio : 2.40:1
Frame rate mode : Constant
Frame rate : 23.976 (24000/1001) FPS
Standard : Component
Color space : YUV
Chroma subsampling : 4:2:0
Bit depth : 8 bits
Scan type : Progressive
Bits/(Pixel*Frame) : 0.217
Stream size : 5.82 GiB (93%)
Default : Yes
Forced : No
Color range : Limited
Color primaries : BT.709
Transfer characteristics : BT.709
Matrix coefficients : BT.709
Audio
ID : 2
Format : AAC Main
Format/Info : Advanced Audio Codec
Codec ID : A_AAC-1
Duration : 1 h 44 min
Bit rate : 576 kb/s
Channel(s) : 2 channels
Channel layout : L R
Sampling rate : 48.0 kHz
Frame rate : 46.875 FPS (1024 SPF)
Compression mode : Lossy
Stream size : 430 MiB (7%)
Default : Yes
Forced : No
Скриншоты:
Все одноименные релизы в КлубеВремя раздачи: 24/7 (минимум до появления первых 3-5 скачавших)
[Профиль] [ЛС]
Показать сообщения:    
Ответить на тему

Текущее время: 23-Май 06:42

Часовой пояс: UTC ± 0



Вы не можете начинать темы
Вы не можете отвечать на сообщения
Вы не можете редактировать свои сообщения
Вы не можете удалять свои сообщения
Вы не можете голосовать в опросах
Вы не можете прикреплять файлы к сообщениям
Вы не можете скачивать файлы

[  Время выполнения: 0,043 сек  |  MySQL: 0,004 сек (9%) · 3 запр.  |  GZIP выкл  |  Память: 422,29 KB / 1,74 MB / 1,34 MB  |  Лимит: 9 9 9  ]