Неубиваемый / Bullet Proof (2022) WEB-DLRip [H.264/1080p-LQ] [MVO, AD]

Ответить на тему
 
Автор Сообщение

admin ®

Пол: Не указан

Стаж: 5 месяца

Сообщений: 10110

Создавать темы 30-Янв-2024 15:46

[Цитировать]

Неубиваемый / Bullet Proof (2022) WEB-DLRip [H.264/1080p-LQ]
«Тачки, деньги и стволы»
- Производство: Канада / Greendale Productions, Grindstone Entertainment Group, IndustryWorks Studios
Жанр: боевик
Режиссер: Джеймс Клэйтон
Продюсер: Марк Пети, Джонни Брои, Джеймс Клэйтон и др.
Актеры: Винни Джонс, Лина Лекомпт, Джеймс Клэйтон, Филип Грэйнджер, Гленн Эннис, Жанвье Катабарва, Лори Триоло, Дэнни Мак, Купер Бибо, Блейн Андерсон
Описание:
Вор совершает возможно главное ограбление всей своей жизни, уведя деньги психопата-наркобарона Темпла. План проходит без сучка и задоринки, пока Вор не обнаруживает неожиданного пассажира в машине — беременную жену Темпла Мию. Разъяренный Темпл и его правая рука — профессиональный киллер Француз — преследуют Вора по горячим следам. Тот разрывается между желанием залечь на дно и рискованным планом помочь Мии вырваться из жестоких объятий мужа. В любом случае, их единственный шанс остаться в живых — это вдавить педаль газа в пол и уйти от погони.
Возраст: 16+ (зрителям, достигшим 16 лет)
Рейтинг MPAA: R (лицам до 17 лет обязательно присутствие взрослого)
Дата мировой премьеры: 8 апреля 2022
Дата российской премьеры: 25 августа 2022, «Кинологистика»
Цифровой релиз: 25 сентября 2022, «Филмстер»
Продолжительность: 01:30:45
Качество видео: WEB-DLRip
Перевод: Многоголосый любительский (MUZOBOZ)
Язык озвучки: Русский
Субтитры: Отсутствуют
Реклама: Присутствует баннер, вставки аудио и видео рекламы
Видео: AVC/H.264, 1920x960, ~7544 Kbps
Аудио: AAC, 2 ch, 576 Kbps

MediaInfo:

General
Unique ID : 252640498958629856938823472012325963535 (0xBE10CA4B438DFED691D0718BA992470F)
Complete name : D:\Downloads\morb\Bullet.Proof.2022.P.WEB-DLRip.1080p.Soft-Torrent - торрент игры программы фильмы книги скачать.mkv
Format : Matroska
Format version : Version 2
File size : 5.15 GiB
Duration : 1 h 30 min
Overall bit rate : 8 119 kb/s
Encoded date : UTC 2022-08-19 07:43:23
Writing application : mkvmerge v8.3.0 ('Over the Horizon') 64bit
Writing library : libebml v1.3.1 + libmatroska v1.4.2
Video
ID : 1
Format : AVC
Format/Info : Advanced Video Codec
Format profile : High@L4.1
Format settings : CABAC / 4 Ref Frames
Format settings, CABAC : Yes
Format settings, Reference frames : 4 frames
Codec ID : V_MPEG4/ISO/AVC
Duration : 1 h 30 min
Bit rate mode : Constant
Bit rate : 7 544 kb/s
Nominal bit rate : 8 000 kb/s
Width : 1 920 pixels
Height : 960 pixels
Display aspect ratio : 2.000
Frame rate mode : Constant
Frame rate : 23.976 (24000/1001) FPS
Standard : Component
Color space : YUV
Chroma subsampling : 4:2:0
Bit depth : 8 bits
Scan type : Progressive
Bits/(Pixel*Frame) : 0.171
Stream size : 4.78 GiB (93%)
Default : Yes
Forced : No
Color range : Limited
Color primaries : BT.709
Transfer characteristics : BT.709
Matrix coefficients : BT.709
Audio
ID : 2
Format : AAC Main
Format/Info : Advanced Audio Codec
Codec ID : A_AAC-1
Duration : 1 h 30 min
Bit rate : 576 kb/s
Channel(s) : 2 channels
Channel layout : L R
Sampling rate : 48.0 kHz
Frame rate : 46.875 FPS (1024 SPF)
Compression mode : Lossy
Stream size : 372 MiB (7%)
Default : Yes
Forced : No
Скриншоты:
Все одноименные релизы в КлубеВремя раздачи: 24/7 (минимум до появления первых 3-5 скачавших)
[Профиль] [ЛС]
Показать сообщения:    
Ответить на тему

Текущее время: 29-Фев 11:01

Часовой пояс: UTC ± 0



Вы не можете начинать темы
Вы не можете отвечать на сообщения
Вы не можете редактировать свои сообщения
Вы не можете удалять свои сообщения
Вы не можете голосовать в опросах
Вы не можете прикреплять файлы к сообщениям
Вы не можете скачивать файлы

[  Время выполнения: 0,039 сек  |  MySQL: 0,004 сек (10%) · 3 запр.  |  GZIP выкл  |  Память: 422,29 KB / 1,74 MB / 1,34 MB  |  Лимит: 11 11 11  ]