Тени / Shadows (2022) WEBRip [H.264/720p] [MVO] [AD]

Ответить на тему
 
Автор Сообщение

admin ®

Пол: Не указан

Стаж: 5 месяца

Сообщений: 10110

Создавать темы 30-Янв-2024 15:45

[Цитировать]

Тени / Shadows (2022) WEBRip [H.264/720p]- Производство: США
Жанр: боевик, криминал
Режиссер: Майкл Маттео Росси
Актеры: Криста Аллен, Фрэнсис Капра, Вернон Уэллс, Дэвид Лабрава, Рэйчел Элиг, Ив Мауро, Эрик Этебари, Жасмин Льюис, Рахарт Адамс, Кэти Барон
Описание:
У Коди была не самая легкая жизнь, ведь он вырос в приемной семье. Это произошло из-за различных проблем, включая злоупотребление психоактивными веществами его матерью Джуэл, которая до сих пор работает проституткой на улице.
Их отношения, мягко говоря, натянуты, и им не помогает то, что Коди встречается с одной из коллег Джуэл, Мишель. Однако более серьезная проблема, чем эта семейная драма, заключается в том, что Коди незаконно завладел новым штаммом наркотиков. Человек, стоящий за этим, Николас в ярости от мысли, что его секрет просочится до того, как он сможет максимизировать прибыль, и отправляет своего главного силовика Дина выследить виновных. Вот только оказывается, что Дин и Коди - родственники! Теперь Дин оказывается в роли защитника парня, так как знает, что Николас не отпустит его просто так.
Дата мировой премьеры: 6 мая 2022
Продолжительность: 01:39:55
Качество видео: WEBRip
Перевод: Многоголосый профессиональный (Синема УС)
Субтитры: Отсутствуют
Реклама: Присутствует баннер.
Видео: AVC/H.264, 1280x536, ~4403 Kbps
Аудио: AC-3, 2 ch, 256 Kbps

MediaInfo:

Общее
Полное имя : D:\NNM\Тени\Shadows.2022.WEBRip.720p.mkv
Формат : Matroska
Версия формата : Version 2
Размер файла : 3,32 Гбайт
Продолжительность : 1 ч. 39 м.
Режим общего битрейта : Постоянный
Общий поток : 4 754 Кбит/сек
Программа кодирования : libmatroska 1.4.1
Библиотека кодирования : SolveigMM Matroska Muxer Version 1.0.1904.23
Видео
Идентификатор : 1
Формат : AVC
Формат/Информация : Advanced Video Codec
Профиль формата : High@L4.1
Настройки формата : CABAC / 4 Ref Frames
Параметр CABAC формата : Да
Параметр RefFrames формата : 4 кадра
Идентификатор кодека : V_MPEG4/ISO/AVC
Продолжительность : 1 ч. 39 м.
Вид битрейта : Постоянный
Битрейт : 4 403 Кбит/сек
Номинальный битрейт : 5 000 Кбит/сек
Ширина : 1 280 пикселей
Высота : 536 пикселей
Соотношение сторон : 2,40:1
Режим частоты кадров : Постоянный
Частота кадров : 23,976 (24000/1001) кадра/сек
Стандарт вещания : Component
Цветовое пространство : YUV
Субдискретизация насыщенности : 4:2:0
Битовая глубина : 8 бит
Тип развёртки : Прогрессивная
Бит/(Пиксели*Кадры) : 0.268
Размер потока : 3,07 Гбайт (93%)
Default : Нет
Forced : Нет
Цветовой диапазон : Limited
Основные цвета : BT.709
Характеристики трансфера : BT.709
Коэффициенты матрицы : BT.709
Аудио
Идентификатор : 2
Формат : AC-3
Формат/Информация : Audio Coding 3
Коммерческое название : Dolby Digital
Идентификатор кодека : A_AC3
Продолжительность : 1 ч. 39 м.
Вид битрейта : Постоянный
Битрейт : 256 Кбит/сек
Каналы : 2 канала
Channel layout : L R
Частота : 48,0 КГц
Частота кадров : 31,250 кадров/сек (1536 SPF)
Метод сжатия : С потерями
Размер потока : 183 Мбайт (5%)
Service kind : Complete Main
Default : Нет
Forced : Нет
Скриншоты: Все одноименные релизы в КлубеВремя раздачи: 24/7 (до 10-ти скачавших)
[Профиль] [ЛС]
Показать сообщения:    
Ответить на тему

Текущее время: 28-Фев 22:29

Часовой пояс: UTC ± 0



Вы не можете начинать темы
Вы не можете отвечать на сообщения
Вы не можете редактировать свои сообщения
Вы не можете удалять свои сообщения
Вы не можете голосовать в опросах
Вы не можете прикреплять файлы к сообщениям
Вы не можете скачивать файлы

[  Время выполнения: 0,032 сек  |  MySQL: 0,003 сек (10%) · 3 запр.  |  GZIP выкл  |  Память: 422,29 KB / 1,74 MB / 1,34 MB  |  Лимит: 10 11 15  ]