Убийственная невеста / Here Kills the Bride (2022) WEB-DLRip [H.264/720p] [MVO] [AD]

Ответить на тему
 
Автор Сообщение

admin ®

Пол: Не указан

Стаж: 7 месяца 24 дня

Сообщений: 11520

Создавать темы 30-Янв-2024 15:45

[Цитировать]

Убийственная невеста / Here Kills the Bride (2022) WEB-DLRip [H.264/720p]- Производство: США / Feifer Worldwide
Жанр: триллер
Режиссер: Майкл Фейфер
Актеры: Эшли Фусс, Эрин Пинеда, Фернандо Бело, Бертила Дамас, Эмильяно Диас, Аарон Голденберг, Michelle Pokopac, Кларк Сарулло, Shakirah DeMesier, Кайя Коли
Описание:
Карлос решил жениться на девушке по имени Грейс, которую он недавно встретил в стрип-клубе. Но его сестра Джасмин заподозрила неладное и оказалась втянута в водоворот страшных событий.
Дата мировой премьеры: 31 мая 2022
Продолжительность: 01:25:29
Качество видео: WEB-DLRip
Перевод: Многоголосый профессиональный (Синема УС)
Субтитры: Отсутствуют
Реклама: Присутствует баннер.
Видео: AVC/H.264, 1280x720, ~4447 Kbps
Аудио: AC-3, 2 ch, 256 Kbps

MediaInfo:

Общее
Полное имя : D:\NNM\Убийственная невеста\Here.Kills.the.Bride.2022.WEB-DLRip.720p.mkv
Формат : Matroska
Версия формата : Version 2
Размер файла : 2,87 Гбайт
Продолжительность : 1 ч. 25 м.
Режим общего битрейта : Постоянный
Общий поток : 4 799 Кбит/сек
Программа кодирования : libmatroska 1.4.1
Библиотека кодирования : SolveigMM Matroska Muxer Version 1.0.1904.23
Видео
Идентификатор : 1
Формат : AVC
Формат/Информация : Advanced Video Codec
Профиль формата : High@L4.1
Настройки формата : CABAC / 4 Ref Frames
Параметр CABAC формата : Да
Параметр RefFrames формата : 4 кадра
Идентификатор кодека : V_MPEG4/ISO/AVC
Продолжительность : 1 ч. 25 м.
Вид битрейта : Постоянный
Битрейт : 4 447 Кбит/сек
Номинальный битрейт : 5 000 Кбит/сек
Ширина : 1 280 пикселей
Высота : 720 пикселей
Соотношение сторон : 16:9
Режим частоты кадров : Постоянный
Частота кадров : 23,976 (24000/1001) кадра/сек
Стандарт вещания : Component
Цветовое пространство : YUV
Субдискретизация насыщенности : 4:2:0
Битовая глубина : 8 бит
Тип развёртки : Прогрессивная
Бит/(Пиксели*Кадры) : 0.201
Размер потока : 2,66 Гбайт (93%)
Default : Нет
Forced : Нет
Цветовой диапазон : Limited
Основные цвета : BT.709
Характеристики трансфера : BT.709
Коэффициенты матрицы : BT.709
Аудио
Идентификатор : 2
Формат : AC-3
Формат/Информация : Audio Coding 3
Коммерческое название : Dolby Digital
Идентификатор кодека : A_AC3
Продолжительность : 1 ч. 25 м.
Вид битрейта : Постоянный
Битрейт : 256 Кбит/сек
Каналы : 2 канала
Channel layout : L R
Частота : 48,0 КГц
Частота кадров : 31,250 кадров/сек (1536 SPF)
Метод сжатия : С потерями
Размер потока : 157 Мбайт (5%)
Язык : Russian
Service kind : Complete Main
Default : Нет
Forced : Нет
Скриншоты: Все одноименные релизы в КлубеВремя раздачи: 24/7 (до 10-ти скачавших)
[Профиль] [ЛС]
Показать сообщения:    
Ответить на тему

Текущее время: 23-Май 06:19

Часовой пояс: UTC ± 0



Вы не можете начинать темы
Вы не можете отвечать на сообщения
Вы не можете редактировать свои сообщения
Вы не можете удалять свои сообщения
Вы не можете голосовать в опросах
Вы не можете прикреплять файлы к сообщениям
Вы не можете скачивать файлы

[  Время выполнения: 0,033 сек  |  MySQL: 0,003 сек (10%) · 3 запр.  |  GZIP выкл  |  Память: 422,49 KB / 1,72 MB / 1,32 MB  |  Лимит: 7 8 10  ]