Как жена / Wifelike (2022) WEBRip [MVO] [AD]

Ответить на тему
 
Автор Сообщение

admin ®

Пол: Не указан

Стаж: 5 месяца 1 день

Сообщений: 10110

Создавать темы 30-Янв-2024 15:44

[Цитировать]

Как жена / Wifelike (2022) WEBRip- Производство: США / SP Media Group, Wonder Street
Жанр: фантастика
Режиссер: Джеймс Бёрд
Актеры: Джонатан Риз Майерс, Елена Кампурис, Дорон Белл, Агам Дарши, Alix Villaret, Флетчер Донован, Сара Сампайо, Рейчел Голдинг, Кэтлин Кромуэлл, К.Дж. Перри
Описание:
События фильма разворачиваются в ближайшем будущем. Роботы-андроиды с искусственным интеллектом активно используются людьми в качестве жены или мужа. детектив полиции Уильям, который недавно овдовел, живет с андроидом Мередит. Пока он пытается раскрыть преступную схему торговли андроидами на черном рынке, Мередит начинает вести себя как его покойная жена. Ее преследуют ложные воспоминания о прошлой жизни, которые заставляют андроида сомневаться в собственной реальности.
Рейтинг MPAA: R (лицам до 17 лет обязательно присутствие взрослого)
Дата мировой премьеры: 2022 год
Продолжительность: 01:44:24
Качество видео: WEBRip
Перевод: Многоголосый любительский (AlphaProject)
Субтитры: Отсутствуют
Реклама: Присутствует баннер.
Видео: XviD, 720x304, ~1793 Kbps
Аудио: AC-3, 2 ch, 192 Kbps

MediaInfo:

Общее
Полное имя : D:\NNM\Как жена\Wifelike.2022.WEBRip.avi
Формат : AVI
Формат/Информация : Audio Video Interleave
Размер файла : 1,45 Гбайт
Продолжительность : 1 ч. 44 м.
Общий поток : 1 994 Кбит/сек
Программа кодирования : VirtualDubMod 1.5.10.3 | www.virtualdub-fr.org || (build 2550/release)
Библиотека кодирования : VirtualDubMod build 2550/release
Видео
Идентификатор : 0
Формат : MPEG-4 Visual
Профиль формата : Advanced Simple@L5
Настройки формата : BVOP1 / Custom Matrix
Параметр BVOP формата : 1
Параметр QPel формата : Нет
Параметр GMC формата : Без точки перехода
Параметр матрицы формата : Выборочная
Идентификатор кодека : XVID
Идентификатор кодека/Подсказка : XviD
Продолжительность : 1 ч. 44 м.
Битрейт : 1 793 Кбит/сек
Ширина : 720 пикселей
Высота : 304 пикселя
Соотношение сторон : 2,35:1
Частота кадров : 23,976 (24000/1001) кадра/сек
Цветовое пространство : YUV
Субдискретизация насыщенности : 4:2:0
Битовая глубина : 8 бит
Тип развёртки : Прогрессивная
Метод сжатия : С потерями
Бит/(Пиксели*Кадры) : 0.342
Размер потока : 1,31 Гбайт (90%)
Библиотека кодирования : XviD 73
Аудио
Идентификатор : 1
Формат : AC-3
Формат/Информация : Audio Coding 3
Коммерческое название : Dolby Digital
Идентификатор кодека : 2000
Продолжительность : 1 ч. 44 м.
Вид битрейта : Постоянный
Битрейт : 192 Кбит/сек
Каналы : 2 канала
Channel layout : L R
Частота : 48,0 КГц
Частота кадров : 31,250 кадров/сек (1536 SPF)
Метод сжатия : С потерями
Размер потока : 143 Мбайт (10%)
Выравнивание : Разделение по промежуткам
Продолжительность промежутка : 42 мс. (1,00 видеокадр)
Время предзагрузки промежутка : 500 мс.
Service kind : Complete Main
Скриншоты: Все одноименные релизы в КлубеВремя раздачи: 24/7 (до 10-ти скачавших)
[Профиль] [ЛС]
Показать сообщения:    
Ответить на тему

Текущее время: 29-Фев 11:15

Часовой пояс: UTC ± 0



Вы не можете начинать темы
Вы не можете отвечать на сообщения
Вы не можете редактировать свои сообщения
Вы не можете удалять свои сообщения
Вы не можете голосовать в опросах
Вы не можете прикреплять файлы к сообщениям
Вы не можете скачивать файлы

[  Время выполнения: 0,044 сек  |  MySQL: 0,005 сек (11%) · 5 запр.  |  GZIP выкл  |  Память: 422,29 KB / 1,73 MB / 1,34 MB  |  Лимит: 13 11 11  ]