Голиаф / Goliath (2022) WEB-DLRip [H.264/1080p] [MVO] [AD]

Ответить на тему
 
Автор Сообщение

admin ®

Пол: Не указан

Стаж: 4 месяца 27 дня

Сообщений: 10110

Создавать темы 30-Янв-2024 15:41

[Цитировать]

Голиаф / Goliath (2022) WEB-DLRip [H.264/1080p]- Производство: Франция, Бельгия / Single Man Productions, Studio Canal, France 3 Cinéma
Жанр: триллер, драма
Режиссер: Фредерик Теллье
Актеры: Жиль Леллуш, Пьер Нинэ, Эмманюэль Берко, Лоран Стокер, Янник Ренье, Хлоя Стефани, Мари Жиллен, Жак Перрен, Heidi-Eva Clavier, Malik Amraoui
Описание:
Франс — учительница физкультуры и активистка, которая выступает против использования пестицидов; Патрик — малоизвестный адвокат, специализирующийся на экологическом праве; Матиас — лоббист, отстаивающий интересы агрохимического гиганта. Пути этих трех людей пересекутся из-за ужасного поступка отчаявшегося фермера.
Дата мировой премьеры: 9 марта 2022
Продолжительность: 02:00:13
Качество видео: WEB-DLRip
Перевод: Многоголосый любительский (MUZOBOZ)
Субтитры: Отсутствуют
Реклама: Присутствует баннер.
Видео: AVC/H.264, 1918x802, ~6002 Kbps
Аудио: AC3, 2 ch, 384 Kbps

MediaInfo:

Общее
Полное имя : D:\NNM\Голиаф\Goliath.2022.WEB-DLRip.1080p.mkv
Формат : Matroska
Версия формата : Version 2
Размер файла : 5,47 Гбайт
Продолжительность : 2 ч. 0 м.
Режим общего битрейта : Постоянный
Общий поток : 6 516 Кбит/сек
Программа кодирования : libmatroska 1.4.1
Библиотека кодирования : SolveigMM Matroska Muxer Version 1.0.1904.23
Видео
Идентификатор : 1
Формат : AVC
Формат/Информация : Advanced Video Codec
Профиль формата : High@L4.1
Настройки формата : CABAC / 4 Ref Frames
Параметр CABAC формата : Да
Параметр RefFrames формата : 4 кадра
Идентификатор кодека : V_MPEG4/ISO/AVC
Продолжительность : 2 ч. 0 м.
Вид битрейта : Постоянный
Битрейт : 6 002 Кбит/сек
Номинальный битрейт : 7 000 Кбит/сек
Ширина : 1 918 пикселей
Высота : 802 пикселя
Соотношение сторон : 2,40:1
Режим частоты кадров : Постоянный
Частота кадров : 23,976 (24000/1001) кадра/сек
Стандарт вещания : Component
Цветовое пространство : YUV
Субдискретизация насыщенности : 4:2:0
Битовая глубина : 8 бит
Тип развёртки : Прогрессивная
Бит/(Пиксели*Кадры) : 0.163
Размер потока : 5,04 Гбайт (92%)
Default : Нет
Forced : Нет
Цветовой диапазон : Limited
Основные цвета : BT.709
Характеристики трансфера : BT.709
Коэффициенты матрицы : BT.709
Аудио
Идентификатор : 2
Формат : AC-3
Формат/Информация : Audio Coding 3
Коммерческое название : Dolby Digital
Идентификатор кодека : A_AC3
Продолжительность : 2 ч. 0 м.
Вид битрейта : Постоянный
Битрейт : 384 Кбит/сек
Каналы : 2 канала
Channel layout : L R
Частота : 48,0 КГц
Частота кадров : 31,250 кадров/сек (1536 SPF)
Метод сжатия : С потерями
Размер потока : 330 Мбайт (6%)
Язык : Russian
Service kind : Complete Main
Default : Нет
Forced : Нет
Скриншоты: Все одноименные релизы в КлубеВремя раздачи: 24/7 (до 10-ти скачавших)
[Профиль] [ЛС]
Показать сообщения:    
Ответить на тему

Текущее время: 25-Фев 21:34

Часовой пояс: UTC ± 0



Вы не можете начинать темы
Вы не можете отвечать на сообщения
Вы не можете редактировать свои сообщения
Вы не можете удалять свои сообщения
Вы не можете голосовать в опросах
Вы не можете прикреплять файлы к сообщениям
Вы не можете скачивать файлы

[  Время выполнения: 0,037 сек  |  MySQL: 0,002 сек (6%) · 3 запр.  |  GZIP выкл  |  Память: 422,29 KB / 1,74 MB / 1,34 MB  |  Лимит: 16 16 15  ]