Клаустрофобы. Долина дьявола / Escape The Field (2022) BDRip [H.264/1080p] [Line, AD]

Ответить на тему
 
Автор Сообщение

admin ®

Пол: Не указан

Стаж: 4 месяца 23 дня

Сообщений: 10110

Создавать темы 30-Янв-2024 15:40

[Цитировать]

Клаустрофобы. Долина дьявола / Escape The Field (2022) BDRip [H.264/1080p]- Производство: США / Anacapa Pictures, CR8IV DNA, Double Dutch International
Жанр: триллер
Режиссер: Эмерсон Мур
Актеры: Джордан Клер Роббинс, Тео Росси, Шейн Уэст, Тахира Шариф, Елена Джуатко, Джулиан Федер, Николь Кавалес, Диллон Ягерски, Райан Стэйсишин
Описание:
Шестеро незнакомцев приходят в себя на кукурузном поле. Они не знают, как и почему там оказались, и зачем у каждого появилось по одному уникальному предмету. Пытаясь действовать сообща и разгадывая всё новые ребусы, они стараются выбраться из ловушки, когда на них нападает зловещее существо, загадочным образом связанное с энергией поля.
Возраст: 16+ (зрителям, достигшим 16 лет)
Рейтинг MPAA: R (лицам до 17 лет обязательно присутствие взрослого)
Дата мировой премьеры: 28 апреля 2022
Дата премьеры в России: 28 июля 2022

Продолжительность: 01:27:10
Качество видео: BDRip
Перевод: Дублированный (Line)
Субтитры: Отсутствуют
Реклама: Присутствует баннер.
Видео: AVC/H.264, 1920x804, ~12,5 Mbps
Аудио: AC3, 2 ch, 384 Kbps

MediaInfo:

Общее
Полное имя : D:\NNM\Клаустрофобы. Долина дьявола\Escape.the.Field.2022.BDRip.1080p.mkv
Формат : Matroska
Версия формата : Version 2
Размер файла : 8,02 Гбайт
Продолжительность : 1 ч. 27 м.
Режим общего битрейта : Постоянный
Общий поток : 13,2 Мбит/сек
Программа кодирования : libmatroska 1.4.1
Библиотека кодирования : SolveigMM Matroska Muxer Version 1.0.1904.23
Видео
Идентификатор : 1
Формат : AVC
Формат/Информация : Advanced Video Codec
Профиль формата : High@L4.1
Настройки формата : CABAC / 4 Ref Frames
Параметр CABAC формата : Да
Параметр RefFrames формата : 4 кадра
Идентификатор кодека : V_MPEG4/ISO/AVC
Продолжительность : 1 ч. 27 м.
Вид битрейта : Постоянный
Битрейт : 12,5 Мбит/сек
Номинальный битрейт : 15,0 Мбит/сек
Ширина : 1 920 пикселей
Высота : 804 пикселя
Соотношение сторон : 2,40:1
Режим частоты кадров : Постоянный
Частота кадров : 23,976 (24000/1001) кадра/сек
Стандарт вещания : Component
Цветовое пространство : YUV
Субдискретизация насыщенности : 4:2:0
Битовая глубина : 8 бит
Тип развёртки : Прогрессивная
Бит/(Пиксели*Кадры) : 0.339
Размер потока : 7,63 Гбайт (95%)
Default : Нет
Forced : Нет
Цветовой диапазон : Limited
Основные цвета : BT.709
Характеристики трансфера : BT.709
Коэффициенты матрицы : BT.709
Аудио
Идентификатор : 2
Формат : AC-3
Формат/Информация : Audio Coding 3
Коммерческое название : Dolby Digital
Идентификатор кодека : A_AC3
Продолжительность : 1 ч. 27 м.
Вид битрейта : Постоянный
Битрейт : 384 Кбит/сек
Каналы : 2 канала
Channel layout : L R
Частота : 48,0 КГц
Частота кадров : 31,250 кадров/сек (1536 SPF)
Метод сжатия : С потерями
Размер потока : 239 Мбайт (3%)
Язык : Russian
Service kind : Complete Main
Default : Нет
Forced : Нет
Скриншоты: Все одноименные релизы в КлубеВремя раздачи: 24/7 (до 10-ти скачавших)
[Профиль] [ЛС]
Показать сообщения:    
Ответить на тему

Текущее время: 22-Фев 01:41

Часовой пояс: UTC ± 0



Вы не можете начинать темы
Вы не можете отвечать на сообщения
Вы не можете редактировать свои сообщения
Вы не можете удалять свои сообщения
Вы не можете голосовать в опросах
Вы не можете прикреплять файлы к сообщениям
Вы не можете скачивать файлы

[  Время выполнения: 0,019 сек  |  MySQL: 0,003 сек (14%) · 3 запр.  |  GZIP выкл  |  Память: 421,84 KB / 1,72 MB / 1,32 MB  |  Лимит: 9 15 17  ]