Свобода любой ценой / Free Dead or Alive (2022) WEBRip [H.264/1080p] [MVO] [AD]

Ответить на тему
 
Автор Сообщение

admin ®

Пол: Не указан

Стаж: 4 месяца 27 дня

Сообщений: 10110

Создавать темы 30-Янв-2024 15:40

[Цитировать]

Свобода любой ценой / Free Dead or Alive (2022) WEBRip [H.264/1080p]- Производство: США / TLG Motion Pictures, Rebel 6 Films, BondIt Media Capital
Жанр: боевик
Режиссер: Эрик Бернард
Актеры: Патрисия Веласкес, Роберт ЛаСардо, Дайана Ортелли, Сет Майклс, Эди Ганем, Кристиана Люкас, Алехандро Де Хойос, Хайме Севалос, Маркус ДеАнда, Лейла Алмас
Описание:
Молодая девушка совершает рискованный побег из Южной Америки в Соединенные Штаты, не подозревая о реальных опасностях, которые ждут ее впереди.
Дата мировой премьеры: 9 августа 2022
Продолжительность: 01:45:15
Качество видео: WEBRip
Перевод: Многоголосый любительский (MUZOBOZ)
Субтитры: Отсутствуют
Реклама: Присутствует баннер.
Видео: AVC/H.264, 1920x800, ~8000 Kbps
Аудио: AC3, 2 ch, 384 Kbps

MediaInfo:

Общее
Полное имя : D:\NNM\Свобода любой ценой\Free.Dead.or.Alive.2022.WEBRip.1080p.mkv
Формат : Matroska
Версия формата : Version 2
Размер файла : 6,10 Гбайт
Продолжительность : 1 ч. 45 м.
Режим общего битрейта : Постоянный
Общий поток : 8 291 Кбит/сек
Программа кодирования : libmatroska 1.4.1
Библиотека кодирования : SolveigMM Matroska Muxer Version 1.0.1904.23
Видео
Идентификатор : 1
Формат : AVC
Формат/Информация : Advanced Video Codec
Профиль формата : High@L4.1
Настройки формата : CABAC / 4 Ref Frames
Параметр CABAC формата : Да
Параметр RefFrames формата : 4 кадра
Идентификатор кодека : V_MPEG4/ISO/AVC
Продолжительность : 1 ч. 45 м.
Вид битрейта : Постоянный
Битрейт : 8 000 Кбит/сек
Ширина : 1 920 пикселей
Высота : 800 пикселей
Соотношение сторон : 2,40:1
Режим частоты кадров : Постоянный
Частота кадров : 23,976 (24000/1001) кадра/сек
Стандарт вещания : Component
Цветовое пространство : YUV
Субдискретизация насыщенности : 4:2:0
Битовая глубина : 8 бит
Тип развёртки : Прогрессивная
Бит/(Пиксели*Кадры) : 0.217
Размер потока : 5,69 Гбайт (93%)
Default : Нет
Forced : Нет
Цветовой диапазон : Limited
Основные цвета : BT.709
Характеристики трансфера : BT.709
Коэффициенты матрицы : BT.709
Аудио
Идентификатор : 2
Формат : AC-3
Формат/Информация : Audio Coding 3
Коммерческое название : Dolby Digital
Идентификатор кодека : A_AC3
Продолжительность : 1 ч. 45 м.
Вид битрейта : Постоянный
Битрейт : 384 Кбит/сек
Каналы : 2 канала
Channel layout : L R
Частота : 48,0 КГц
Частота кадров : 31,250 кадров/сек (1536 SPF)
Метод сжатия : С потерями
Размер потока : 289 Мбайт (5%)
Язык : Russian
Service kind : Complete Main
Default : Нет
Forced : Нет
Скриншоты: Все одноименные релизы в КлубеВремя раздачи: 24/7 (до 10-ти скачавших)
[Профиль] [ЛС]
Показать сообщения:    
Ответить на тему

Текущее время: 25-Фев 17:20

Часовой пояс: UTC ± 0



Вы не можете начинать темы
Вы не можете отвечать на сообщения
Вы не можете редактировать свои сообщения
Вы не можете удалять свои сообщения
Вы не можете голосовать в опросах
Вы не можете прикреплять файлы к сообщениям
Вы не можете скачивать файлы

[  Время выполнения: 0,041 сек  |  MySQL: 0,004 сек (9%) · 3 запр.  |  GZIP выкл  |  Память: 422,29 KB / 1,74 MB / 1,34 MB  |  Лимит: 10 10 10  ]