Счётчик смертей / Death Count / Numbers (2022) WEB-DLRip [H.264/1080p-LQ] [MVO, AD]

Ответить на тему
 
Автор Сообщение

admin ®

Пол: Не указан

Стаж: 4 месяца 27 дня

Сообщений: 10110

Создавать темы 30-Янв-2024 15:37

[Цитировать]

Счётчик смертей / Numbers (2022) WEB-DLRip [H.264/1080p-LQ] - Производство: США / Mahal Empire, Mezek Films, Blaen-Y-Maes Bootleg Films
Жанр: ужасы
Режиссер: Майкл Су
Продюсер: Йон Вангдаль Амас, Jon Adams, Jamal Alsaqer
Актеры: Майкл Мэдсен, Костас Мэндилор, Роберт ЛаСардо, Сара Френч, BJ Mezek, Деванни Пинн, Wesley Cannon, Denny Nolan, Dave Shecter, Кимберли Л. Коул
Описание:
Незнакомцы просыпаются в отдельных камерах, не помня, как они сюда попали. Они понимают, что если своевременно не наберут достаточное количество «лайков» в сети, то умрут ужасной смертью от рук зловещего палача.
Релиз от: Anrif
Продолжительность: 01:20:39
Качество видео: WEB-DLRip (1080p)
Перевод: Многоголосый закадровый (AlphaProject)
Язык озвучки: Русский
Субтитры: Отсутствуют
Реклама: Присутствует баннер!
Видео: AVC/H.264, 1920x1080, ~6959 kbps
Аудио: AС-3, 2 ch, 192 kbps

MediaInfo:

Общее
Уникальный идентификатор : 204376891654737555449112760844832225211 (0x99C18EBC1CB994BCBF28E1E8411037BB)
Полное имя : F:\[Anf].Numbers.(2022).WEB-DLRip.[1080p-LQ].mkv
Формат : Matroska
Версия формата : Version 4
Размер файла : 4,03 Гбайт
Продолжительность : 1 ч. 20 м.
Режим общего битрейта : Постоянный
Общий поток : 7 153 Кбит/сек
Название фильма : Счётчик смертей / Numbers...(2022)
Дата кодирования : UTC 2022-07-21 16:11:12
Программа кодирования : mkvmerge v8.3.0 ('Over the Horizon') 64bit
Библиотека кодирования : libebml v1.3.1 + libmatroska v1.4.2
Обложка : Yes
Attachments : cover.jpg
Видео
Идентификатор : 1
Формат : AVC
Формат/Информация : Advanced Video Codec
Профиль формата : High@L4.1
Настройки формата : CABAC / 4 Ref Frames
Параметр CABAC формата : Да
Параметр RefFrames формата : 4 кадра
Идентификатор кодека : V_MPEG4/ISO/AVC
Продолжительность : 1 ч. 20 м.
Вид битрейта : Постоянный
Битрейт : 6 959 Кбит/сек
Номинальный битрейт : 8 000 Кбит/сек
Ширина : 1 920 пикселей
Высота : 1 080 пикселей
Соотношение сторон : 16:9
Режим частоты кадров : Постоянный
Частота кадров : 23,976 (24000/1001) кадра/сек
Стандарт вещания : Component
Цветовое пространство : YUV
Субдискретизация насыщенности : 4:2:0
Битовая глубина : 8 бит
Тип развёртки : Прогрессивная
Бит/(Пиксели*Кадры) : 0.140
Размер потока : 3,92 Гбайт (97%)
Заголовок : =-Anrif=-
Библиотека кодирования : x264 core 155
Настройки программы : cabac=1 / ref=4 / deblock=1:0:0 / analyse=0x3:0x3 / me=dia / subme=1 / psy=1 / psy_rd=1.00:0.00 / mixed_ref=0 / me_range=16 / chroma_me=1 / trellis=0 / 8x8dct=1 / cqm=1 / deadzone=21,11 / fast_pskip=1 / chroma_qp_offset=0 / threads=34 / lookahead_threads=5 / sliced_threads=0 / slices=1 / nr=0 / decimate=1 / interlaced=0 / minigop=0 / stitchable=1 / constrained_intra=0 / bframes=2 / b_pyramid=0 / b_adapt=0 / b_bias=0 / direct=1 / weightb=1 / open_gop=1 / weightp=0 / keyint=240 / keyint_min=23 / scenecut=40 / intra_refresh=0 / rc_lookahead=0 / rc=cbr / mbtree=0 / bitrate=8000 / ratetol=1.0 / qcomp=0.60 / qpmin=1 / qpmax=69 / qpstep=4 / vbv_maxrate=8000 / vbv_bufsize=8000 / nal_hrd=cbr / filler=1 / ip_ratio=1.40 / pb_ratio=1.30 / aq=1:1.00
Язык : English
Default : Да
Forced : Да
Цветовой диапазон : Limited
Основные цвета : BT.709
Характеристики трансфера : BT.709
Коэффициенты матрицы : BT.709
Аудио
Идентификатор : 2
Формат : AC-3
Формат/Информация : Audio Coding 3
Коммерческое название : Dolby Digital
Идентификатор кодека : A_AC3
Продолжительность : 1 ч. 20 м.
Вид битрейта : Постоянный
Битрейт : 192 Кбит/сек
Каналы : 2 канала
Channel layout : L R
Частота : 48,0 КГц
Частота кадров : 31,250 кадров/сек (1536 SPF)
Метод сжатия : С потерями
Размер потока : 111 Мбайт (3%)
Заголовок : MVO [AlphaProject]
Язык : Russian
Service kind : Complete Main
Default : Да
Forced : Да
Скриншоты: Все одноименные релизы в Клубе Время раздачи: с 18:00 до 24:00 (до первых 3-5 скачавших)
[Профиль] [ЛС]
Показать сообщения:    
Ответить на тему

Текущее время: 25-Фев 21:27

Часовой пояс: UTC ± 0



Вы не можете начинать темы
Вы не можете отвечать на сообщения
Вы не можете редактировать свои сообщения
Вы не можете удалять свои сообщения
Вы не можете голосовать в опросах
Вы не можете прикреплять файлы к сообщениям
Вы не можете скачивать файлы

[  Время выполнения: 0,027 сек  |  MySQL: 0,003 сек (11%) · 3 запр.  |  GZIP выкл  |  Память: 422,29 KB / 1,72 MB / 1,32 MB  |  Лимит: 15 16 14  ]